\m/ 80's metal \m/

Информационно-аналитический форум "80 см пыли" (In Search We Trust) "У нас никто никуда не спешит"
Железнодорожная биржа - RailAgent
It is currently 22 Jul 2018

All times are UTC + 3 hours

Spoiler
Chat - temporary registration for foreign users (please leave your application here)







Post new topic Reply to topic  [ 9 posts ] 
Author Message
 
PostPosted: 01 Feb 2014 
Генеральный thrasher
User avatar
Joined: 03 Oct 2008
Posts: 3408
Lоcаtion: Ханты-Мансийский АО
Age: 43
Name: Сергей
Image

Year:2006
Style:Thrash Metal
Country:Czech Republic
Audio:Flac+Cue+Log+Scans
Size:419Mb
Source:my CD
Label:Redblack Productions

Line-Up:
Peroon 666 - vocals (2-13)
Petr - vocals (3,5,6,7,8,11,13)
Miguel - lead guitar (2,4,8-13)
Alex 93 - rhythm guitar
R.A.D. - lead guitar (3,5,6,7)
Bája - bass
Zdenál - drums

Tracklist:
01. R.H.T.T 01:00
02. Face It 04:10
03. Fire 03:25
04. The River 04:41
05. One Second After 04:38
06. Breathtaking Speed 03:41
07. Deadly Kiss 03:57
08. Lethal Dependence 03:41
09. Live On 03:35
10. Deliverance 03:24
11. K 2 04:47
12. Lost Illusions 02:13
13. Fucking Reality 06:22
10. Jesus Is My Best Friend 01:31

"Cue"
REM GENRE "Thrash Metal"
REM DATE 2006
REM DISCID B50BA40D
REM COMMENT "ExactAudioCopy v0.99pb5"
PERFORMER "Shaark"
TITLE "Again With Hatred"
FILE "Shaark - Again With Hatred.flac" WAVE
TRACK 01 AUDIO
TITLE "R.H.T.T"
PERFORMER "Shaark"
INDEX 01 00:00:00
TRACK 02 AUDIO
TITLE "Face It"
PERFORMER "Shaark"
INDEX 01 01:00:60
TRACK 03 AUDIO
TITLE "Fire"
PERFORMER "Shaark"
INDEX 01 05:10:69
TRACK 04 AUDIO
TITLE "The River"
PERFORMER "Shaark"
INDEX 01 08:36:29
TRACK 05 AUDIO
TITLE "One Second After "
PERFORMER "Shaark"
INDEX 01 13:17:53
TRACK 06 AUDIO
TITLE "Breathtaking Speed"
PERFORMER "Shaark"
INDEX 01 17:56:40
TRACK 07 AUDIO
TITLE "Deadly Kiss"
PERFORMER "Shaark"
INDEX 01 21:38:22
TRACK 08 AUDIO
TITLE "Lethal Dependence"
PERFORMER "Shaark"
INDEX 01 25:36:16
TRACK 09 AUDIO
TITLE "Live On"
PERFORMER "Shaark"
INDEX 01 29:17:62
TRACK 10 AUDIO
TITLE "Deliverance"
PERFORMER "Shaark"
INDEX 01 32:53:28
TRACK 11 AUDIO
TITLE "K 2"
PERFORMER "Shaark"
INDEX 01 36:17:74
TRACK 12 AUDIO
TITLE "Lost Illusions"
PERFORMER "Shaark"
INDEX 01 41:04:74
TRACK 13 AUDIO
TITLE "Fucking Reality"
PERFORMER "Shaark"
INDEX 01 43:18:37

"Log"
Exact Audio Copy V0.99 prebeta 5 from 4. May 2009

Отчёт EAC об извлечении, выполненном 2. ноября 2013, 6:11

Shaark / Again With Hatred

Дисковод: MATSHITADVD-RAM UJ8A0AS Adapter: 0 ID: 1

Режим чтения : Достоверность
Использование точного потока : Да
Отключение кэша аудио : Да
Использование указателей C2 : Нет

Коррекция смещения при чтении : 102
Способность читать области Lead-in и Lead-out : Нет
Заполнение пропущенных сэмплов тишиной : Да
Удаление блоков с тишиной в начале и конце : Нет
При вычислениях CRC использовались нулевые сэмплы : Да
Интерфейс : Встроенный Win32-интерфейс для Win NT/2000

Выходной формат : Пользовательский кодировщик
Выбранный битрейт : 1024 kBit/s
Качество : Высокий
Добавление ID3-тэга : Нет
Утилита сжатия : C:\Program Files\Exact Audio Copy\FLAC\FLAC.EXE
Дополнительные параметры : -6 -V -T "ARTIST=%a" -T "TITLE=%t" -T "ALBUM=%g" -T "DATE=%y" -T "TRACKNUMBER=%n" -T "GENRE=%m" -T "COMMENT=%e" %s -o %d


TOC извлечённого CD

Трек | Старт | Длительность | Начальный сектор | Конечный сектор
---------------------------------------------------------------------
1 | 0:00.00 | 1:00.60 | 0 | 4559
2 | 1:00.60 | 4:10.09 | 4560 | 23318
3 | 5:10.69 | 3:25.35 | 23319 | 38728
4 | 8:36.29 | 4:41.24 | 38729 | 59827
5 | 13:17.53 | 4:38.62 | 59828 | 80739
6 | 17:56.40 | 3:41.57 | 80740 | 97371
7 | 21:38.22 | 3:57.69 | 97372 | 115215
8 | 25:36.16 | 3:41.46 | 115216 | 131836
9 | 29:17.62 | 3:35.41 | 131837 | 148002
10 | 32:53.28 | 3:24.46 | 148003 | 163348
11 | 36:17.74 | 4:47.00 | 163349 | 184873
12 | 41:04.74 | 2:13.38 | 184874 | 194886
13 | 43:18.37 | 6:22.37 | 194887 | 223573


Характеристики диапазона извлечения и сообщения об ошибках

Выбранный диапазон

Имя файла C:\Users\эксперт\Music\Shaark - Again With Hatred.wav

Пиковый уровень 100.0 %
Качество диапазона 100.0 %
CRC копии A41DCAB3
Копирование... OK

Ошибок не произошло


AccurateRip: сводка

Трек 1 нет в базе данных
Трек 2 нет в базе данных
Трек 3 нет в базе данных
Трек 4 нет в базе данных
Трек 5 нет в базе данных
Трек 6 нет в базе данных
Трек 7 нет в базе данных
Трек 8 нет в базе данных
Трек 9 нет в базе данных
Трек 10 нет в базе данных
Трек 11 нет в базе данных
Трек 12 нет в базе данных
Трек 13 нет в базе данных

Ни одного трека нет в базе AccurateRip

Конец отчёта


Again With Hatred


Top
 Profile  
 
 
PostPosted: 01 Feb 2014 
Хиппей (support team)
User avatar
Joined: 30 Jul 2007
Posts: 105197
Lоcаtion: Киев (Kyiv, UA)
Age: 45
Name: Andrey
:thanx:

mirror: Narod l M-Cloud

_________________


Top
 Profile E-mail  
 
 
PostPosted: 01 Feb 2014 
Дежурный по КУПу
User avatar
Joined: 17 Aug 2007
Posts: 5869
Age: 50
Name: Ге
:thanx:

_________________
http://jp-mania.ru/
http://jp-tourdates.ucoz.ru/


Top
 Profile  
 
 
PostPosted: 02 Feb 2014 
Прокъмитолист
User avatar
Joined: 12 Aug 2007
Posts: 6421
Lоcаtion: Санктъ-Петербуркъ
Age: 50
Name: Олекъ
Серёг, спасибо! :thanx:

_________________
прокъметол - это музыко, от которово есть прок (ы)


Top
 Profile  
 
 
PostPosted: 03 Feb 2014 
А может смените мне статус?..
User avatar
Joined: 28 Jul 2008
Posts: 906
Lоcаtion: Украина---Днепропетровск
Age: 44
Name: Александр
:thanx:

_________________
Музыка в которой я растворяюсь многих угнетает......


Top
 Profile  
 
 
PostPosted: 07 Feb 2014 
Alive Again
User avatar
Joined: 17 Dec 2008
Posts: 4576
Lоcаtion: Курск Воронеж Оскол
Age: 43
Name: Дмитрий
:thanx:


Top
 Profile E-mail  
 
 
PostPosted: 08 Feb 2014 
Хиппей (support team)
User avatar
Joined: 30 Jul 2007
Posts: 105197
Lоcаtion: Киев (Kyiv, UA)
Age: 45
Name: Andrey
Уже кто-то успел послушать альбом? :crazy:

_________________


Top
 Profile E-mail  
 
 
PostPosted: 08 Feb 2014 
Генеральный thrasher
User avatar
Joined: 03 Oct 2008
Posts: 3408
Lоcаtion: Ханты-Мансийский АО
Age: 43
Name: Сергей
Я послушал,Андрюха :benya: :benya: :benya:

Остальные наверное в копилочку сложили.


Top
 Profile  
 
 
PostPosted: 08 Feb 2014 
Хиппей (support team)
User avatar
Joined: 30 Jul 2007
Posts: 105197
Lоcаtion: Киев (Kyiv, UA)
Age: 45
Name: Andrey
thorbeorn wrote:
Остальные наверное в копилочку сложили.

Во-во =) А смайлик как пометка, что скачали :crazy:

Я тоже качну и перезалил, а самого лося снёс. Не было в тот день времени на послушать. А сейчас и места снова нет :fingal:

_________________


Top
 Profile E-mail  
 
Display posts from previous:  Sort by  
Post new topic Reply to topic  [ 9 posts ] 

All times are UTC + 3 hours


Who is online

Users browsing this forum: No registered users and 1 guest


You cannot post new topics in this forum
You cannot reply to topics in this forum
You cannot edit your posts in this forum
You cannot delete your posts in this forum
You cannot post attachments in this forum

Search for:
Яндекс.Метрика
Powered by phpBB © 2000, 2002, 2005, 2007 phpBB Group