\m/ 80's metal \m/

Информационно-аналитический форум "80 см пыли" (In Search We Trust) "У нас никто никуда не спешит"
Me For You - http://me-4u.com
It is currently 19 Nov 2018

All times are UTC + 3 hours

Spoiler
Chat - temporary registration for foreign users (please leave your application here)







Post new topic Reply to topic  [ 8 posts ] 
Author Message
 
PostPosted: 12 Jan 2014 
\m/ 80 см сала \m/
User avatar
Joined: 12 Mar 2012
Posts: 2589
Age: 25
Name: Nick
Image

SDI - 1989 - Mistreated (speed/thrash)

1. The Deal 6:33
2. Night Of Tears 6:00
3. Violence 3:09
4. We Want More 1:20
5. Kiss Ass 6:01
6. Never 4:54
7. Mother 4:55
8. Mistreated 5:20
9. SDI 5:11

Разыскивается пресс '89 года от Hot Blood #8720 (оригинальный цд? бутлег?). В общем, нужон оригинал, а не более подзний ремастер :thanx:

http://www.discogs.com/SDI-Mistreated/release/4215440
http://www.musik-sammler.de/media/198810

_________________
1990 AUROPHON BRAINSTORM (Germany) - lossless
1994 MAUSOLEUM CLASSIX (Belgium-Germany) - lossless
1998 VA - GRIM HARVEST - Complete Metal Massacre Volumes I-XII


Top
 Profile  
 
 
PostPosted: 12 Jan 2014 
Дежурный по КУПу
User avatar
Joined: 17 Aug 2007
Posts: 5869
Age: 50
Name: Ге
Винильчик...
http://rutracker.org/forum/viewtopic.php?t=4572365
http://rutracker.org/forum/viewtopic.php?t=3993314

_________________
http://jp-mania.ru/
http://jp-tourdates.ucoz.ru/


Top
 Profile  
 
 
PostPosted: 12 Jan 2014 
Alive Again
User avatar
Joined: 17 Dec 2008
Posts: 4740
Lоcаtion: Курск Воронеж Оскол
Age: 44
Name: Дмитрий
Попробуй этот

S.D.I - 1989 - Mistreated [ape+cue+log]


Top
 Profile E-mail  
 
 
PostPosted: 12 Jan 2014 
Работнечег
User avatar
Joined: 28 Aug 2007
Posts: 5532
Lоcаtion: г. Москва
Age: 29
Name: Дима
А на hot blood что-то официальное вообще выходило, никто не подскажет? это ж греческая конторка по-моему или я путаю


Top
 Profile E-mail  
 
 
PostPosted: 12 Jan 2014 
Труъ
User avatar
Joined: 23 Nov 2012
Posts: 149
Lоcаtion: Новосибирск
Age: 38
Name: Игорь
Quote:
А на hot blood что-то официальное вообще выходило, никто не подскажет? это ж греческая конторка по-моему или я путаю


Греческая - это Hot Metal, а Hot Blood - это подразделение Gama Musikverlag. Стыдно не знать :pardon:

_________________
ты не мужчина если у тебя нет штанги (и электрогитары)


Top
 Profile E-mail  
 
 
PostPosted: 12 Jan 2014 
\m/ 80 см сала \m/
User avatar
Joined: 12 Mar 2012
Posts: 2589
Age: 25
Name: Nick
dr_rockter, :thanx: :true:
Запрос можно закрыть :dance:

_________________
1990 AUROPHON BRAINSTORM (Germany) - lossless
1994 MAUSOLEUM CLASSIX (Belgium-Germany) - lossless
1998 VA - GRIM HARVEST - Complete Metal Massacre Volumes I-XII


Top
 Profile  
 
 
PostPosted: 12 Jan 2014 
Хиппей (support team)
User avatar
Joined: 30 Jul 2007
Posts: 108182
Lоcаtion: Киев (Kyiv, UA)
Age: 45
Name: Andrey
:thanx:

mirror: Narod l M-Cloud

Image Image Image

log
Отчёт EAC об извлечении, выполненном 7. февраля 2006, 0:52 для диска:
S.D.I. / Mistreated

Дисковод: AXV CD/DVD-ROM Adapter: 2 ID: 0
Режим чтения: Точный (C2: нет, Точный поток: да, Отключение кэша: да)
Коррекция смещения при чтении: 96
Экстрачтение областей Lead-in и Lead-out : Да

Выходной формат: Внутренние WAV-операции
44.100 Гц; 16 бит; стерео

Другие параметры:
Заполнение пропущенных сэмплов тишиной : Да
Удаление блоков с тишиной в начале и конце : Нет
'Родной' Win32-интерфейс для Win NT/2000


Статус диапазона и ошибки
Выбранный диапазон
Имя файла E:\Music\CD-DA\SDI\1989 - Mistreated.wav

Пиковый уровень 100.0 %
Качество диапазона 100.0 %
CRC B96ACF7E
Копирование... OK

Ошибок не произошло

Конец отчёта

cue
PERFORMER "S.D.I."
TITLE "Mistreated"
FILE "S.D.I - 1989 - Mistreated.ape" WAVE
TRACK 01 AUDIO
TITLE "The Deal"
PERFORMER "S.D.I."
FLAGS DCP
INDEX 01 00:00:00
TRACK 02 AUDIO
TITLE "Night Of Tears"
PERFORMER "S.D.I."
FLAGS DCP
INDEX 01 06:30:40
TRACK 03 AUDIO
TITLE "Violence"
PERFORMER "S.D.I."
FLAGS DCP
INDEX 01 12:28:17
TRACK 04 AUDIO
TITLE "After 'Violence'"
PERFORMER "S.D.I."
FLAGS DCP
INDEX 01 15:35:04
TRACK 05 AUDIO
TITLE "We Want More"
PERFORMER "S.D.I."
FLAGS DCP
INDEX 01 16:53:46
TRACK 06 AUDIO
TITLE "Kiss Ass"
PERFORMER "S.D.I."
FLAGS DCP
INDEX 01 21:00:35
TRACK 07 AUDIO
TITLE "Never"
PERFORMER "S.D.I."
FLAGS DCP
INDEX 01 26:59:25
TRACK 08 AUDIO
TITLE "Mother"
PERFORMER "S.D.I."
FLAGS DCP
INDEX 01 31:51:39
TRACK 09 AUDIO
TITLE "Mistreated"
PERFORMER "S.D.I."
FLAGS DCP
INDEX 01 36:44:16
TRACK 10 AUDIO
TITLE "S.D.I."
PERFORMER "S.D.I."
FLAGS DCP
INDEX 01 42:01:56

_________________


Top
 Profile E-mail  
 
 
PostPosted: 16 Jan 2014 
Хиппей (support team)
User avatar
Joined: 30 Jul 2007
Posts: 108182
Lоcаtion: Киев (Kyiv, UA)
Age: 45
Name: Andrey
В общем, не зря я до сих пор не слушал этот альбом.
Группа эта для меня в 80-х была сродни Метал Присту, только еще роднее, потому как помимо харизматичного вокалиста у них был и свой характерный наглый стиль звучания и куча убойных и хитовых вещей.
Некая наглость осталась и на этом альбоме, но уже звучит как пародия на себя же :pardon:

4/10

_________________


Top
 Profile E-mail  
 
Display posts from previous:  Sort by  
Post new topic Reply to topic  [ 8 posts ] 

All times are UTC + 3 hours


Who is online

Users browsing this forum: No registered users and 2 guests


You cannot post new topics in this forum
You cannot reply to topics in this forum
You cannot edit your posts in this forum
You cannot delete your posts in this forum
You cannot post attachments in this forum

Search for:
Яндекс.Метрика
cron
Powered by phpBB © 2000, 2002, 2005, 2007 phpBB Group