\m/ 80's metal \m/

Информационно-аналитический форум "80 см пыли" (In Search We Trust) "У нас никто никуда не спешит"
Me For You - http://me-4u.com
It is currently 23 Sep 2018

All times are UTC + 3 hours

Spoiler
Chat - temporary registration for foreign users (please leave your application here)







Post new topic Reply to topic  [ 14 posts ] 
Author Message
 
PostPosted: 16 Nov 2013 
Работнечег
User avatar
Joined: 28 Aug 2007
Posts: 5409
Lоcаtion: г. Москва
Age: 29
Name: Дима
Image

Band: Stygian
Album: Planetary Destruction (Japan Version)
Year: 1992
Label: Leviathan Records/Apollon Inc.
Genre: Thrash Metal
Coutry: USA
Format: Flac + Log + Cue + Covers
Size: 325 Mb

Line-Up:
James Harris - Bass
Dennis Lesh - Drums (ex-Chastain, ex-Kenziner, ex-Trouble)
Bob Allen - Guitars
Mike Delmore - Guitars
Gary Golwitzer - Vocals (ex-Wrath)


Tracklist:
1. Planetary Destruction 03:34
2. Behind Death's Door 04:05
3. Cremation 04:52
4. Catastrophic Deed 04:23
5. Needful Things 06:12
6. Fall From Grace 04:12
7. Deadly Psychic Evil 04:33
8. Environmental Suicide 02:55
9. Preacher and the Politician 04:56
10. The Switch 07:14

LOG
Exact Audio Copy V0.99 prebeta 5 from 4. May 2009

EAC extraction logfile from 16. November 2013, 20:06

Stygian / Planetary Destruction

Used drive : PIONEER DVD-RW DVR-116D Adapter: 0 ID: 0

Read mode : Secure
Utilize accurate stream : Yes
Defeat audio cache : Yes
Make use of C2 pointers : No

Read offset correction : 96
Overread into Lead-In and Lead-Out : No
Fill up missing offset samples with silence : Yes
Delete leading and trailing silent blocks : No
Null samples used in CRC calculations : Yes
Used interface : Native Win32 interface for Win NT & 2000

Used output format : User Defined Encoder
Selected bitrate : 32 kBit/s
Quality : High
Add ID3 tag : No
Command line compressor : C:\Program Files\Exact Audio Copy\Flac\flac.exe
Additional command line options : -6 -V %s


TOC of the extracted CD

Track | Start | Length | Start sector | End sector
---------------------------------------------------------
1 | 0:00.37 | 3:35.08 | 37 | 16169
2 | 3:35.45 | 4:05.62 | 16170 | 34606
3 | 7:41.32 | 4:52.65 | 34607 | 56571
4 | 12:34.22 | 4:23.10 | 56572 | 76306
5 | 16:57.32 | 6:12.58 | 76307 | 104264
6 | 23:10.15 | 4:12.35 | 104265 | 123199
7 | 27:22.50 | 4:33.10 | 123200 | 143684
8 | 31:55.60 | 2:55.05 | 143685 | 156814
9 | 34:50.65 | 4:56.07 | 156815 | 179021
10 | 39:46.72 | 7:14.30 | 179022 | 211601


Range status and errors

Selected range

Filename D:\Музыка\Lossless\Stygian - Planetary Destruction (Japan)(1992)\Stygian - Planetary destruction.wav

Peak level 100.0 %
Range quality 100.0 %
Copy CRC 1C51898D
Copy OK

No errors occurred


AccurateRip summary

Track 1 accurately ripped (confidence 1) [0BC52639]
Track 2 accurately ripped (confidence 1) [B6578A84]
Track 3 accurately ripped (confidence 1) [0868209A]
Track 4 accurately ripped (confidence 1) [529AAFF8]
Track 5 accurately ripped (confidence 1) [23F20859]
Track 6 accurately ripped (confidence 1) [B59DEB4B]
Track 7 accurately ripped (confidence 1) [88913BEF]
Track 8 accurately ripped (confidence 1) [6660DBFA]
Track 9 accurately ripped (confidence 1) [509DE996]
Track 10 accurately ripped (confidence 1) [2EBCF4E7]

All tracks accurately ripped

End of status report

CUE
REM GENRE "Thrash Metal"
REM DATE 1992
REM DISCID 880B050A
REM COMMENT "ExactAudioCopy v0.99pb5"
PERFORMER "Stygian"
TITLE "Planetary Destruction"
FILE "Stygian - Planetary destruction.flac" WAVE
TRACK 01 AUDIO
TITLE "Planetary Destruction"
PERFORMER "Stygian"
INDEX 00 00:00:00
INDEX 01 00:00:37
TRACK 02 AUDIO
TITLE "Behind Death's Door"
PERFORMER "Stygian"
INDEX 01 03:35:45
TRACK 03 AUDIO
TITLE "Cremation"
PERFORMER "Stygian"
INDEX 01 07:41:32
TRACK 04 AUDIO
TITLE "Catastrophic Deed"
PERFORMER "Stygian"
INDEX 01 12:34:22
TRACK 05 AUDIO
TITLE "Needful Things"
PERFORMER "Stygian"
INDEX 01 16:57:32
TRACK 06 AUDIO
TITLE "Fall From Grace"
PERFORMER "Stygian"
INDEX 01 23:10:15
TRACK 07 AUDIO
TITLE "Deadly Psychic Evil"
PERFORMER "Stygian"
INDEX 01 27:22:50
TRACK 08 AUDIO
TITLE "Enviromental Suicide"
PERFORMER "Stygian"
INDEX 01 31:55:60
TRACK 09 AUDIO
TITLE "Preacher And The Politician"
PERFORMER "Stygian"
INDEX 01 34:50:65
TRACK 10 AUDIO
TITLE "The Switch"
PERFORMER "Stygian"
INDEX 01 39:46:72


FLAC

phpBB [youtube]

phpBB [youtube]


:true: :true: :true:


Last edited by church on 17 Nov 2013, edited 1 time in total.

Top
 Profile E-mail  
 
 
PostPosted: 16 Nov 2013 
Хиппей (support team)
User avatar
Joined: 30 Jul 2007
Posts: 106502
Lоcаtion: Киев (Kyiv, UA)
Age: 45
Name: Andrey
:thanx:

mirror: Narod l M-Cloud

Не забыть бы посмотреть сюда завтра :crazy:

_________________


Top
 Profile E-mail  
 
 
PostPosted: 17 Nov 2013 
ТрэшЭрос
User avatar
Joined: 18 Jul 2011
Posts: 2296
Lоcаtion: Гулькевичи
Age: 43
Name: Александр
Интересно, чем/ничем отличается этот от этого?

Image
:umnik:

_________________
Thrash no trash!!!


Top
 Profile E-mail  
 
 
PostPosted: 17 Nov 2013 
Работнечег
User avatar
Joined: 28 Aug 2007
Posts: 5409
Lоcаtion: г. Москва
Age: 29
Name: Дима
токо тем, что этот японец)) может звук отличается немного, этого не могу заявлять)
P.S. Добавлена сссылка на скачивание.


Top
 Profile E-mail  
 
 
PostPosted: 17 Nov 2013 
Генеральный thrasher
User avatar
Joined: 03 Oct 2008
Posts: 3449
Lоcаtion: Ханты-Мансийский АО
Age: 43
Name: Сергей
Группа весьма хороша,на мой взгляд.Вот к сожалению Seconds 'Til Death (EP) в лосёвом качестве никогда не попадался... :cry:


Top
 Profile  
 
 
PostPosted: 17 Nov 2013 
Работнечег
User avatar
Joined: 28 Aug 2007
Posts: 5409
Lоcаtion: г. Москва
Age: 29
Name: Дима
Да, группа тоже нравится, поддерживаю! Так ипишка токо виниловая, поэтому вряд ли с неё когда-то лося увидим :( Хотя если не ошибаюсь в 2014 какая-то контора обещала переиздание сделать этого альбома. Может как раз ипишкой и добьют в виде бонусов.


Top
 Profile E-mail  
 
 
PostPosted: 17 Nov 2013 
Генеральный thrasher
User avatar
Joined: 03 Oct 2008
Posts: 3449
Lоcаtion: Ханты-Мансийский АО
Age: 43
Name: Сергей
Да,Дима,всё возможно в наше время.Ещё есть и демки.Может Stormspell переиздаст всё творчество американцев.


Top
 Profile  
 
 
PostPosted: 18 Nov 2013 
Metal Collector
User avatar
Joined: 16 Nov 2008
Posts: 1226
Lоcаtion: Химки
Age: 35
Name: Андрей
Люблю эту группу хотя бы за что, что в песне Cremation, на мой взгляд, одно из лучших соло в истории тяжёлой музыки.


Top
 Profile E-mail  
 
 
PostPosted: 18 Nov 2013 
Хиппей (support team)
User avatar
Joined: 30 Jul 2007
Posts: 106502
Lоcаtion: Киев (Kyiv, UA)
Age: 45
Name: Andrey
Хм, а я вот послушал три раза альбом и не пойму, что делать, как мне к группе относиться - ругать или хвалить :lloo:
Это ж немного облегчённый клон Testament :fingal:
Не знаю даже, я клоны не люблю, но здесь вокал иной и почти все песни скоростные.
Короче, никак не могу определиться, нравится мне коллектив или нет. Слишком уж много явных заимствований у грандов жанра :fingal:

Без оценки итоговой.

_________________


Top
 Profile E-mail  
 
 
PostPosted: 18 Nov 2013 
Генеральный thrasher
User avatar
Joined: 03 Oct 2008
Posts: 3449
Lоcаtion: Ханты-Мансийский АО
Age: 43
Name: Сергей
Андрюх,на тот момент Testament спёкся...А эти ребята мне дюже нравятся.


Top
 Profile  
 
 
PostPosted: 18 Nov 2013 
А может смените мне статус?..
User avatar
Joined: 24 Sep 2012
Posts: 856
Lоcаtion: Нижегородская обл.
Age: 48
Name: Вячеслав
Давно не слушал этот альбом, раньше очень нравился! :true: church огромное спасибо, буду вспоминать! :meloman:

_________________
Image


Top
 Profile E-mail  
 
 
PostPosted: 18 Nov 2013 
Хиппей (support team)
User avatar
Joined: 30 Jul 2007
Posts: 106502
Lоcаtion: Киев (Kyiv, UA)
Age: 45
Name: Andrey
thorbeorn wrote:
на тот момент Testament спёкся...А эти ребята мне дюже нравятся.

Да вот без разницы кто там спёкся когда, но не люблю я почти полные клоны групп :fingal:
Поэтому и подобные альбомы оценивать сложно мне :vic: Всё время ж лезут в башку и уши ассоциации с аналоговой группой.
И пусть эта будет в тысячу раз круче, но они всё равно повторюхи всего-лишь.

_________________


Top
 Profile E-mail  
 
 
PostPosted: 18 Nov 2013 
Хиппей (support team)
User avatar
Joined: 30 Jul 2007
Posts: 106502
Lоcаtion: Киев (Kyiv, UA)
Age: 45
Name: Andrey
Опа, стоп. Как это спёкся Тэстамент, если в 92-м они как раз "Ритуал" выпустили? :shok:

_________________


Top
 Profile E-mail  
 
 
PostPosted: 18 Nov 2013 
А может смените мне статус?..
User avatar
Joined: 24 Sep 2012
Posts: 856
Lоcаtion: Нижегородская обл.
Age: 48
Name: Вячеслав
Шикарнейший альбом, уже третий раз подряд дослушиваю! :meloman:

_________________
Image


Top
 Profile E-mail  
 
Display posts from previous:  Sort by  
Post new topic Reply to topic  [ 14 posts ] 

All times are UTC + 3 hours


Who is online

Users browsing this forum: No registered users and 2 guests


You cannot post new topics in this forum
You cannot reply to topics in this forum
You cannot edit your posts in this forum
You cannot delete your posts in this forum
You cannot post attachments in this forum

Search for:
Яндекс.Метрика
Powered by phpBB © 2000, 2002, 2005, 2007 phpBB Group