\m/ 80's metal \m/

Информационно-аналитический форум "80 см пыли" (In Search We Trust) "У нас никто никуда не спешит"
Me For You - http://me-4u.com
It is currently 20 Nov 2018

All times are UTC + 3 hours

Spoiler
Chat - temporary registration for foreign users (please leave your application here)







Post new topic Reply to topic  [ 11 posts ] 
Author Message
 
PostPosted: 05 Nov 2013 
Генеральный thrasher
User avatar
Joined: 03 Oct 2008
Posts: 3507
Lоcаtion: Ханты-Мансийский АО
Age: 43
Name: Сергей
Image

Year:1998
Style:Thrash Metal
Country:U.S.A.
Audio:Flac+Cue+Log+Scans
Size:503Mb
Source:My CD
Label:Self-Release

Line-Up:
Anthony Starks - Bass, Vocals, Vocals (lead) on "Time is at Hand"
Darren Tompkins - Drums, Vocals
Michael Coffey - Vocals (lead), Guitars, Guitars (acoustic)

Tracklist:
01. To Kill Evil 06:07
02. Time is at Hand 06:20
03. Pain 06:38
04. The Great Controversy 05:27
05. The Persecution 05:08
06. Bullfight 01:34
07. Malice 05:15
08. Higher Now 06:28
09. Wrath Cometh 02:52
10. Long Live Stone Vengeance 04:11
11. Chase 04:57
12. Pain (Extended Version) 08:28
13. Foxy Lady 03:49
14. The Pill 05:43

"Cue"
REM GENRE "Thrash Metal"
REM DATE 1998
REM DISCID D511220E
REM COMMENT "ExactAudioCopy v0.99pb5"
PERFORMER "Stone Vengeance"
TITLE "To Kill Evil"
FILE "Stone Vengeance - To Kill Evil.flac" WAVE
TRACK 01 AUDIO
TITLE "To Kill Evil"
PERFORMER "Stone Vengeance"
INDEX 01 00:00:00
TRACK 02 AUDIO
TITLE "Time Is At Hand"
PERFORMER "Stone Vengeance"
INDEX 01 06:07:60
TRACK 03 AUDIO
TITLE "Pain"
PERFORMER "Stone Vengeance"
INDEX 01 12:28:04
TRACK 04 AUDIO
TITLE " The Great Controversy"
PERFORMER "Stone Vengeance"
INDEX 01 19:06:59
TRACK 05 AUDIO
TITLE "The Persecution"
PERFORMER "Stone Vengeance"
INDEX 01 24:33:61
TRACK 06 AUDIO
TITLE "Bullfight"
PERFORMER "Stone Vengeance"
INDEX 01 29:42:34
TRACK 07 AUDIO
TITLE "Malice"
PERFORMER "Stone Vengeance"
INDEX 01 31:17:07
TRACK 08 AUDIO
TITLE "Higher Now"
PERFORMER "Stone Vengeance"
INDEX 01 36:32:53
TRACK 09 AUDIO
TITLE "Wrath Cometh"
PERFORMER "Stone Vengeance"
INDEX 01 43:01:44
TRACK 10 AUDIO
TITLE "Long Live Stone Vengeance"
PERFORMER "Stone Vengeance"
INDEX 01 45:54:12
TRACK 11 AUDIO
TITLE "Chase"
PERFORMER "Stone Vengeance"
INDEX 01 50:06:04
TRACK 12 AUDIO
TITLE "Pain (Extended Version)"
PERFORMER "Stone Vengeance"
INDEX 01 55:04:01
TRACK 13 AUDIO
TITLE "Foxy Lady"
PERFORMER "Stone Vengeance"
INDEX 01 63:32:74
TRACK 14 AUDIO
TITLE "The Pill"
PERFORMER "Stone Vengeance"
INDEX 01 67:22:72

"Log"
Exact Audio Copy V0.99 prebeta 5 from 4. May 2009

Отчёт EAC об извлечении, выполненном 25. октября 2013, 20:40

Stone Vengeance / To Kill Evil

Дисковод: MATSHITADVD-RAM UJ8A0AS Adapter: 0 ID: 1

Режим чтения : Достоверность
Использование точного потока : Да
Отключение кэша аудио : Да
Использование указателей C2 : Нет

Коррекция смещения при чтении : 102
Способность читать области Lead-in и Lead-out : Нет
Заполнение пропущенных сэмплов тишиной : Да
Удаление блоков с тишиной в начале и конце : Нет
При вычислениях CRC использовались нулевые сэмплы : Да
Интерфейс : Встроенный Win32-интерфейс для Win NT/2000

Выходной формат : Пользовательский кодировщик
Выбранный битрейт : 1024 kBit/s
Качество : Высокий
Добавление ID3-тэга : Нет
Утилита сжатия : C:\Program Files\Exact Audio Copy\FLAC\FLAC.EXE
Дополнительные параметры : -6 -V -T "ARTIST=%a" -T "TITLE=%t" -T "ALBUM=%g" -T "DATE=%y" -T "TRACKNUMBER=%n" -T "GENRE=%m" -T "COMMENT=%e" %s -o %d


TOC извлечённого CD

Трек | Старт | Длительность | Начальный сектор | Конечный сектор
---------------------------------------------------------------------
1 | 0:00.00 | 6:07.60 | 0 | 27584
2 | 6:07.60 | 6:20.19 | 27585 | 56103
3 | 12:28.04 | 6:38.55 | 56104 | 86008
4 | 19:06.59 | 5:27.02 | 86009 | 110535
5 | 24:33.61 | 5:08.48 | 110536 | 133683
6 | 29:42.34 | 1:34.48 | 133684 | 140781
7 | 31:17.07 | 5:15.46 | 140782 | 164452
8 | 36:32.53 | 6:28.66 | 164453 | 193618
9 | 43:01.44 | 2:52.43 | 193619 | 206561
10 | 45:54.12 | 4:11.67 | 206562 | 225453
11 | 50:06.04 | 4:57.72 | 225454 | 247800
12 | 55:04.01 | 8:28.73 | 247801 | 285973
13 | 63:32.74 | 3:49.73 | 285974 | 303221
14 | 67:22.72 | 5:43.42 | 303222 | 328988


Характеристики диапазона извлечения и сообщения об ошибках

Выбранный диапазон

Имя файла C:\Users\эксперт\Music\Stone Vengeance - To Kill Evil.wav

Пиковый уровень 100.0 %
Качество диапазона 100.0 %
CRC копии BB2CDC08
Копирование... OK

Ошибок не произошло


AccurateRip: сводка

Трек 1 нет в базе данных
Трек 2 нет в базе данных
Трек 3 нет в базе данных
Трек 4 нет в базе данных
Трек 5 нет в базе данных
Трек 6 нет в базе данных
Трек 7 нет в базе данных
Трек 8 нет в базе данных
Трек 9 нет в базе данных
Трек 10 нет в базе данных
Трек 11 нет в базе данных
Трек 12 нет в базе данных
Трек 13 нет в базе данных
Трек 14 нет в базе данных

Ни одного трека нет в базе AccurateRip

Конец отчёта


To Kill Evil


Top
 Profile  
 
 
PostPosted: 05 Nov 2013 
\m/ 80 см сала \m/
User avatar
Joined: 12 Mar 2012
Posts: 2589
Age: 25
Name: Nick
:thanx:
Заценю на выходных

_________________
1990 AUROPHON BRAINSTORM (Germany) - lossless
1994 MAUSOLEUM CLASSIX (Belgium-Germany) - lossless
1998 VA - GRIM HARVEST - Complete Metal Massacre Volumes I-XII


Top
 Profile  
 
 
PostPosted: 06 Nov 2013 
Хиппей (support team)
User avatar
Joined: 30 Jul 2007
Posts: 108205
Lоcаtion: Киев (Kyiv, UA)
Age: 45
Name: Andrey
:thanx:

mirror: Narod l M-Cloud

_________________


Top
 Profile E-mail  
 
 
PostPosted: 06 Nov 2013 
ТрэшЭрос
User avatar
Joined: 18 Jul 2011
Posts: 2300
Lоcаtion: Гулькевичи
Age: 43
Name: Александр
thorbeorn, :thanx: :true:
Оказывается, сей калифорнийский ансамбль существует аж с 1978(!!!) года :shok:

Image

Гарны хлопцы издали всего 3 полноформатных альбома...
МА

_________________
Thrash no trash!!!


Top
 Profile E-mail  
 
 
PostPosted: 06 Nov 2013 
Генеральный thrasher
User avatar
Joined: 03 Oct 2008
Posts: 3507
Lоcаtion: Ханты-Мансийский АО
Age: 43
Name: Сергей
Ну да,Сань.А что тебя удивляет?Вообще музыка очень разнообразная - вперемешку и трэшак галопирующий и Хендрикс тут же.


Top
 Profile  
 
 
PostPosted: 06 Nov 2013 
А может смените мне статус?..
User avatar
Joined: 24 Sep 2012
Posts: 856
Lоcаtion: Нижегородская обл.
Age: 48
Name: Вячеслав
Сергей спасибо, с удовольствием ознакомлюсь! :thanx: :meloman:

_________________
Image


Top
 Profile E-mail  
 
 
PostPosted: 06 Nov 2013 
ТрэшЭрос
User avatar
Joined: 18 Jul 2011
Posts: 2300
Lоcаtion: Гулькевичи
Age: 43
Name: Александр
thorbeorn wrote:
что тебя удивляет?

Серёга, ну за 35 лет можно было не 3, а хотя бы 4 или 5 альбомов издать? :benya:
Пы.Сы. Ищо не слушал их труд...

_________________
Thrash no trash!!!


Top
 Profile E-mail  
 
 
PostPosted: 06 Nov 2013 
Генеральный thrasher
User avatar
Joined: 03 Oct 2008
Posts: 3507
Lоcаtion: Ханты-Мансийский АО
Age: 43
Name: Сергей
Я так думаю,что они никуда не торопятся.И данная ситуация их вполне устраивает... :vic:


Top
 Profile  
 
 
PostPosted: 09 Nov 2013 
Хиппей (support team)
User avatar
Joined: 30 Jul 2007
Posts: 108205
Lоcаtion: Киев (Kyiv, UA)
Age: 45
Name: Andrey
В общем, еще несколько раз послушал этот альбом.
Трэша снова не обнаружил :pardon:

_________________


Top
 Profile E-mail  
 
 
PostPosted: 09 Nov 2013 
Генеральный thrasher
User avatar
Joined: 03 Oct 2008
Posts: 3507
Lоcаtion: Ханты-Мансийский АО
Age: 43
Name: Сергей
Андрюх,наверное плохо искал :benya: :vic:


Top
 Profile  
 
 
PostPosted: 09 Nov 2013 
Хиппей (support team)
User avatar
Joined: 30 Jul 2007
Posts: 108205
Lоcаtion: Киев (Kyiv, UA)
Age: 45
Name: Andrey
Местами попадаются песни в стиле спид-павер с ритм-секцией блюзовой или фанковой. Я это ну никак трэшем не могу назвать :pardon:

Так что легенда о том, что эта группа первой из всех начала играть трэш так и остается легендой.
Она его вообще и не пыталась нарезать.

_________________


Top
 Profile E-mail  
 
Display posts from previous:  Sort by  
Post new topic Reply to topic  [ 11 posts ] 

All times are UTC + 3 hours


Who is online

Users browsing this forum: No registered users and 1 guest


You cannot post new topics in this forum
You cannot reply to topics in this forum
You cannot edit your posts in this forum
You cannot delete your posts in this forum
You cannot post attachments in this forum

Search for:
Яндекс.Метрика
Powered by phpBB © 2000, 2002, 2005, 2007 phpBB Group