\m/ 80's metal \m/

Информационно-аналитический форум "80 см пыли" (In Search We Trust) "У нас никто никуда не спешит"
Me For You - http://me-4u.com
It is currently 19 Sep 2018

All times are UTC + 3 hours

Spoiler
Chat - temporary registration for foreign users (please leave your application here)







Post new topic Reply to topic  [ 5 posts ] 
Author Message
 
PostPosted: 07 Oct 2013 
Хиппей (support team)
User avatar
Joined: 30 Jul 2007
Posts: 106323
Lоcаtion: Киев (Kyiv, UA)
Age: 45
Name: Andrey
Slayer - 1983 - Live Undead [ape] ripped by Rockberto from MMT

Image
Image

Line-up:
Kerry King - guitars, lyrics (tracks 1, 3, 5-7)
Tom Araya - vocals, bass
Jeff Hanneman - (R.I.P. 2013) - guitars, lyrics (tracks 2-5, 7)
Dave Lombardo - drums

    1. Black Magic - 03:56
    2. Die by the Sword - 04:01
    3. Captor of Sin - 03:32
    4. The Antichrist - 02:57
    5. Evil Has No Boundaries - 02:54
    6. Show No Mercy - 03:04
    7. Aggressive Perfector - 02:32
    8. Chemical Warfare - 06:02

    TPT: 28:58

Narod

Инфу чуть позже добавлю.*добавил*

А вот пару словей прям щас. Хороший заловый альбом с прекрасными песнями.
Что и как здесь записывалось, не знаю, но мне звук понравился :dance:
Думал лося взял где-то по ссылкам у нас, оказалось, что нет. Зачем качал и для кого, не помню. Всё... :pardon:

log
EAC extraction logfile from 16. March 2008, 19:51 for CD
Slayer / Live Undead

Used drive : PLEXTOR CD-R PX-230A Adapter: 5 ID: 1
Read mode : Secure with NO C2, accurate stream, disable cache
Read offset correction : 738
Overread into Lead-In and Lead-Out : No

Used output format : C:\Programmi\Exact Audio Copy\MAC.EXE (Monkey's Audio Lossless Encoder)
High Lossless Compression

Other options :
Fill up missing offset samples with silence : Yes
Delete leading and trailing silent blocks : No
Native Win32 interface for Win NT & 2000


Range status and errors
Selected range
Filename C:\Documents and Settings\oem\Documenti\Musica\Slayer - Live Undead\Slayer - Live Undead.wav.wav

Peak level 72.2 %
Range quality 100.0 %
CRC 779717CD
Copy OK

No errors occured

End of status report

cue
REM GENRE Metal
REM DATE 1983
REM DISCID 6E06CA08
REM COMMENT "ExactAudioCopy v0.95b4"
PERFORMER "Slayer"
TITLE "Live Undead"
FILE "Slayer - Live Undead.wav" WAVE
TRACK 01 AUDIO
TITLE "Black Magic"
PERFORMER "Slayer"
INDEX 01 00:00:00
TRACK 02 AUDIO
TITLE "Die by the Sword"
PERFORMER "Slayer"
INDEX 00 03:56:02
INDEX 01 03:56:05
TRACK 03 AUDIO
TITLE "Captor of Sin"
PERFORMER "Slayer"
INDEX 00 07:57:31
INDEX 01 07:57:32
TRACK 04 AUDIO
TITLE "The Antichrist"
PERFORMER "Slayer"
INDEX 00 11:29:65
INDEX 01 11:29:67
TRACK 05 AUDIO
TITLE "Evil Has no Boundaries"
PERFORMER "Slayer"
INDEX 00 14:26:37
INDEX 01 14:26:40
TRACK 06 AUDIO
TITLE "Show no Mercy"
PERFORMER "Slayer"
INDEX 00 17:20:00
INDEX 01 17:20:02
TRACK 07 AUDIO
TITLE "Aggressive Perfector"
PERFORMER "Slayer"
INDEX 00 20:24:65
INDEX 01 20:24:67
TRACK 08 AUDIO
TITLE "Chemical Warfare"
PERFORMER "Slayer"
INDEX 00 22:54:35
INDEX 01 22:56:25

spectrum
Image

_________________


Top
 Profile E-mail  
 
 
PostPosted: 07 Oct 2013 
ТрэшЭрос
User avatar
Joined: 18 Jul 2011
Posts: 2296
Lоcаtion: Гулькевичи
Age: 43
Name: Александр
:thanx:
Это?

_________________
Thrash no trash!!!


Top
 Profile E-mail  
 
 
PostPosted: 07 Oct 2013 
Хиппей (support team)
User avatar
Joined: 30 Jul 2007
Posts: 106323
Lоcаtion: Киев (Kyiv, UA)
Age: 45
Name: Andrey
Ага :dance: Только выше переиздание от 87 года.

Ща добавлю хоть трэк-лист и картинки.

_________________


Top
 Profile E-mail  
 
 
PostPosted: 08 Oct 2013 
5-speed satisfactor
User avatar
Joined: 16 Feb 2009
Posts: 3554
Lоcаtion: New York, USA
Age: 40
Name: Leonid
Кто скажет, это такая же цифра, что и у мериканского оригинального издания от Metal Blade?

_________________
Death rules! Metal to all who oppose!


Top
 Profile  
 
 
PostPosted: 08 Oct 2013 
Хиппей (support team)
User avatar
Joined: 30 Jul 2007
Posts: 106323
Lоcаtion: Киев (Kyiv, UA)
Age: 45
Name: Andrey
:vic:

_________________


Top
 Profile E-mail  
 
Display posts from previous:  Sort by  
Post new topic Reply to topic  [ 5 posts ] 

All times are UTC + 3 hours


Who is online

Users browsing this forum: No registered users and 2 guests


You cannot post new topics in this forum
You cannot reply to topics in this forum
You cannot edit your posts in this forum
You cannot delete your posts in this forum
You cannot post attachments in this forum

Search for:
Яндекс.Метрика
Powered by phpBB © 2000, 2002, 2005, 2007 phpBB Group