\m/ 80's metal \m/

Информационно-аналитический форум "80 см пыли" (In Search We Trust) "У нас никто никуда не спешит"
Me For You - http://me-4u.com
It is currently 10 Apr 2020

All times are UTC + 3 hours

Spoiler
Chat - temporary registration for foreign users (please leave your application here)







Post new topic Reply to topic  [ 31 posts ]  Go to page 1, 2  Next
Author Message
 
PostPosted: 21 Sep 2013 
Персональный статус
User avatar
Joined: 11 May 2011
Posts: 422
Lоcаtion: Omsk
Age: 30
Name: Alexander
Image

Исполнитель: Saint Vitus
Альбом: Hallow's Victim
Страна: US
Жанр: Traditional Doom Metal
Год: 1985
Лейбл: SST Records
Каталожный номер: SST 052

Треклист:
1. War Is Our Destiny
2. White Stallions
3. Mystic Lady
4. Hallow's Victim
5. The Sadist
6. Just Friends (Empty Love)
7. Prayer For The (M)asses

Собственно понимаю что найти это издание наверняка что-то из разряда фантастики, но чем чёрт не шутит? К тому же мы ведь здесь все никуда не спешим, верно? :crazy:
Данный альбом переиздавался на CD в виде компиляции Saint Vitus / Hallow's Victim (SST 052-N 009), звучок там глухой жутко, будто с запиленных кассет делали (что не исключено). Дебютнику при этом ещё повезло, (первопресс с гораздо лучшим звуком можно найти на всем известном трекере).

_________________
Enigma, unholy, ungodly, commander of the regeneration
Insidious and caught, implored by disgrace
Inhumation... The burial of man
Confession... Unify all evil


Last edited by Schmelzer on 21 Sep 2013, edited 1 time in total.

Top
 Profile E-mail  
 
 
PostPosted: 21 Sep 2013 
Хиппей (support team)
User avatar
Joined: 30 Jul 2007
Posts: 118485
Lоcаtion: Киев (Kyiv, UA)
Age: 46
Name: Andrey
Ну и где трэк-лист?
Блин, например :fingal:

_________________


Top
 Profile E-mail  
 
 
PostPosted: 21 Sep 2013 
Персональный статус
User avatar
Joined: 11 May 2011
Posts: 422
Lоcаtion: Omsk
Age: 30
Name: Alexander
:pardon:

_________________
Enigma, unholy, ungodly, commander of the regeneration
Insidious and caught, implored by disgrace
Inhumation... The burial of man
Confession... Unify all evil


Top
 Profile E-mail  
 
 
PostPosted: 12 Jul 2019 
Rara avis
User avatar
Joined: 27 Jan 2009
Posts: 5491
Name: .
https://yadi.sk/mail?hash=JHpP6iuMwzxrt ... =155099347


Top
 Profile E-mail  
 
 
PostPosted: 13 Jul 2019 
Хиппей (support team)
User avatar
Joined: 30 Jul 2007
Posts: 118485
Lоcаtion: Киев (Kyiv, UA)
Age: 46
Name: Andrey
Лось?..

_________________


Top
 Profile E-mail  
 
 
PostPosted: 13 Jul 2019 
Хиппей (support team)
User avatar
Joined: 30 Jul 2007
Posts: 118485
Lоcаtion: Киев (Kyiv, UA)
Age: 46
Name: Andrey
Упс. Лось. Флаки =)
Даш, спасибо =)) :thanx:

Откуда дровишки?


mirror: Ur-Files l Telega l Uloz l Narod

_________________


Top
 Profile E-mail  
 
 
PostPosted: 13 Jul 2019 
Персональный статус
User avatar
Joined: 11 May 2011
Posts: 422
Lоcаtion: Omsk
Age: 30
Name: Alexander
Я уже и забыл про запрос :smile:
Двойник The Walking Dead / Hallow's Victim, выложенный на рутрекере хорошим человеком по сравнению с бутлегом просто небо и земля.
Его пожалуй и оставлю, здесь звук как-то глуховат.

Спасибо :thanx:

_________________
Enigma, unholy, ungodly, commander of the regeneration
Insidious and caught, implored by disgrace
Inhumation... The burial of man
Confession... Unify all evil


Top
 Profile E-mail  
 
 
PostPosted: 16 Jul 2019 
Хиппей (support team)
User avatar
Joined: 30 Jul 2007
Posts: 118485
Lоcаtion: Киев (Kyiv, UA)
Age: 46
Name: Andrey
Schmelzer wrote:
здесь звук как-то глуховат

Нормальный звук.
Но сам альбом нудный до жути. Лишь один трэк более-мене понравился. Скоростной типа.

6/10

_________________


Top
 Profile E-mail  
 
 
PostPosted: 16 Jul 2019 
Хиппей (support team)
User avatar
Joined: 30 Jul 2007
Posts: 118485
Lоcаtion: Киев (Kyiv, UA)
Age: 46
Name: Andrey
Schmelzer wrote:
Двойник The Walking Dead / Hallow's Victim, выложенный на рутрекере

А где именно? Ссылку можно сюда? :thanx:

_________________


Top
 Profile E-mail  
 
 
PostPosted: 16 Jul 2019 
Хиппей (support team)
User avatar
Joined: 30 Jul 2007
Posts: 118485
Lоcаtion: Киев (Kyiv, UA)
Age: 46
Name: Andrey
Schmelzer wrote:
[reqs] Saint Vitus - 1985 - Hallow's Victim [Vinyl 1st Press]

И это, Сань, а запрос закрывать? :scratch:

_________________


Top
 Profile E-mail  
 
 
PostPosted: 19 Jul 2019 
Персональный статус
User avatar
Joined: 11 May 2011
Posts: 422
Lоcаtion: Omsk
Age: 30
Name: Alexander
А где именно? Ссылку можно сюда? :thanx:

The Walking Dead / Hallow's Victim
И это, Сань, а запрос закрывать? :scratch:

Да :smile:

_________________
Enigma, unholy, ungodly, commander of the regeneration
Insidious and caught, implored by disgrace
Inhumation... The burial of man
Confession... Unify all evil


Top
 Profile E-mail  
 
 
PostPosted: 19 Jul 2019 
Хиппей (support team)
User avatar
Joined: 30 Jul 2007
Posts: 118485
Lоcаtion: Киев (Kyiv, UA)
Age: 46
Name: Andrey
:thanx: Ок.


Перекачаю позже к нам те рипы.

_________________


Top
 Profile E-mail  
 
 
PostPosted: 26 Jul 2019 
Хиппей (support team)
User avatar
Joined: 30 Jul 2007
Posts: 118485
Lоcаtion: Киев (Kyiv, UA)
Age: 46
Name: Andrey
Saint Vitus - 1986 - The Walking Dead, Hallow's Victim (reissue 2009) [flacs]

Image Image Image

mirror: Ur-Files l Telega l Uloz l Narod l M-Cloud

Image Image

log
Exact Audio Copy V1.0 beta 3 from 29. August 2011

EAC extraction logfile from 5. August 2013, 3:44

Saint Vitus / The Walking Dead / Hallow's Victim

Used drive : HL-DT-STBD-RE BP06LU10 Adapter: 2 ID: 0

Read mode : Secure
Utilize accurate stream : Yes
Defeat audio cache : Yes
Make use of C2 pointers : No

Read offset correction : 667
Overread into Lead-In and Lead-Out : No
Fill up missing offset samples with silence : Yes
Delete leading and trailing silent blocks : No
Null samples used in CRC calculations : Yes
Used interface : Native Win32 interface for Win NT & 2000
Gap handling : Appended to previous track

Used output format : User Defined Encoder
Selected bitrate : 1024 kBit/s
Quality : High
Add ID3 tag : No
Command line compressor : C:\Program Files\Exact Audio Copy\FLAC\FLAC.EXE
Additional command line options : -8 -V -T "ARTIST=%artist%" -T "TITLE=%title%" -T "ALBUM=%albumtitle%" -T "DATE=%year%" -T "TRACKNUMBER=%tracknr%" -T "GENRE=%genre%" -T "PERFORMER=%albuminterpret%" -T "COMPOSER=%composer%" %haslyrics%--tag-from-file=LYRICS="%lyricsfile%"%haslyrics% -T "ALBUMARTIST=%albumartist%" -T "DISCNUMBER=%cdnumber%" -T "TOTALDISCS=%totalcds%" -T "TOTALTRACKS=%numtracks%" -T "COMMENT=%comment%" %source% -o %dest%


TOC of the extracted CD

Track | Start | Length | Start sector | End sector
---------------------------------------------------------
1 | 0:00.00 | 3:28.69 | 0 | 15668
2 | 3:28.69 | 11:44.20 | 15669 | 68488
3 | 15:13.14 | 5:25.55 | 68489 | 92918
4 | 20:38.69 | 4:10.73 | 92919 | 111741
5 | 24:49.67 | 7:48.29 | 111742 | 146870
6 | 32:38.21 | 2:44.74 | 146871 | 159244
7 | 35:23.20 | 4:01.00 | 159245 | 177319
8 | 39:24.20 | 5:47.18 | 177320 | 203362
9 | 45:11.38 | 4:56.71 | 203363 | 225633
10 | 50:08.34 | 3:31.65 | 225634 | 241523
11 | 53:40.24 | 0:04.00 | 241524 | 241823
12 | 53:44.24 | 0:07.00 | 241824 | 242348
13 | 53:51.24 | 0:08.00 | 242349 | 242948
14 | 53:59.24 | 0:04.00 | 242949 | 243248
15 | 54:03.24 | 0:07.00 | 243249 | 243773
16 | 54:10.24 | 0:08.00 | 243774 | 244373
17 | 54:18.24 | 0:04.00 | 244374 | 244673
18 | 54:22.24 | 0:07.00 | 244674 | 245198
19 | 54:29.24 | 0:08.00 | 245199 | 245798
20 | 54:37.24 | 0:04.00 | 245799 | 246098
21 | 54:41.24 | 0:07.00 | 246099 | 246623
22 | 54:48.24 | 0:08.00 | 246624 | 247223
23 | 54:56.24 | 0:04.00 | 247224 | 247523
24 | 55:00.24 | 0:07.00 | 247524 | 248048
25 | 55:07.24 | 0:08.00 | 248049 | 248648
26 | 55:15.24 | 0:04.00 | 248649 | 248948
27 | 55:19.24 | 0:07.00 | 248949 | 249473
28 | 55:26.24 | 0:08.00 | 249474 | 250073
29 | 55:34.24 | 0:04.00 | 250074 | 250373
30 | 55:38.24 | 0:07.00 | 250374 | 250898
31 | 55:45.24 | 0:08.00 | 250899 | 251498
32 | 55:53.24 | 0:04.00 | 251499 | 251798
33 | 55:57.24 | 0:07.00 | 251799 | 252323
34 | 56:04.24 | 0:07.00 | 252324 | 252848
35 | 56:11.24 | 0:04.00 | 252849 | 253148
36 | 56:15.24 | 0:07.00 | 253149 | 253673
37 | 56:22.24 | 0:08.00 | 253674 | 254273
38 | 56:30.24 | 0:04.00 | 254274 | 254573
39 | 56:34.24 | 0:07.00 | 254574 | 255098
40 | 56:41.24 | 0:08.00 | 255099 | 255698
41 | 56:49.24 | 0:04.00 | 255699 | 255998
42 | 56:53.24 | 0:07.00 | 255999 | 256523
43 | 57:00.24 | 0:08.00 | 256524 | 257123
44 | 57:08.24 | 0:04.00 | 257124 | 257423
45 | 57:12.24 | 0:07.00 | 257424 | 257948
46 | 57:19.24 | 0:08.00 | 257949 | 258548
47 | 57:27.24 | 0:04.00 | 258549 | 258848
48 | 57:31.24 | 0:07.00 | 258849 | 259373
49 | 57:38.24 | 0:08.00 | 259374 | 259973
50 | 57:46.24 | 0:04.00 | 259974 | 260273
51 | 57:50.24 | 0:07.00 | 260274 | 260798
52 | 57:57.24 | 0:08.00 | 260799 | 261398
53 | 58:05.24 | 0:04.00 | 261399 | 261698
54 | 58:09.24 | 0:07.00 | 261699 | 262223
55 | 58:16.24 | 0:08.00 | 262224 | 262823
56 | 58:24.24 | 0:04.00 | 262824 | 263123
57 | 58:28.24 | 0:07.00 | 263124 | 263648
58 | 58:35.24 | 0:08.00 | 263649 | 264248
59 | 58:43.24 | 0:04.00 | 264249 | 264548
60 | 58:47.24 | 0:07.00 | 264549 | 265073
61 | 58:54.24 | 0:41.57 | 265074 | 268205


Track 1

Filename F:\The Walking Dead - Hallow's Victim\01 - Darkness.wav

Pre-gap length 0:00:02.00

Peak level 97.9 %
Extraction speed 1.1 X
Track quality 100.0 %
Test CRC 7AFE61F8
Copy CRC 7AFE61F8
Accurately ripped (confidence 3) [52E06115] (AR v2)
Copy OK

Track 2

Filename F:\The Walking Dead - Hallow's Victim\02 - The Walking Dead.wav

Pre-gap length 0:00:01.00

Peak level 98.4 %
Extraction speed 1.5 X
Track quality 100.0 %
Test CRC C615A9D7
Copy CRC C615A9D7
Accurately ripped (confidence 3) [4AEC63F1] (AR v2)
Copy OK

Track 3

Filename F:\The Walking Dead - Hallow's Victim\03 - White Stallions.wav

Pre-gap length 0:00:01.37

Peak level 97.6 %
Extraction speed 1.6 X
Track quality 100.0 %
Test CRC E3283C84
Copy CRC E3283C84
Accurately ripped (confidence 3) [E13842D7] (AR v2)
Copy OK

Track 4

Filename F:\The Walking Dead - Hallow's Victim\04 - War Is Our Destiny.wav

Pre-gap length 0:00:02.00

Peak level 97.9 %
Extraction speed 1.5 X
Track quality 99.9 %
Test CRC F91B9965
Copy CRC F91B9965
Accurately ripped (confidence 3) [170C5207] (AR v2)
Copy OK

Track 5

Filename F:\The Walking Dead - Hallow's Victim\05 - Mystic Lady.wav

Pre-gap length 0:00:01.00

Peak level 98.0 %
Extraction speed 2.0 X
Track quality 100.0 %
Test CRC A89B57B4
Copy CRC A89B57B4
Accurately ripped (confidence 3) [C8C75DB8] (AR v2)
Copy OK

Track 6

Filename F:\The Walking Dead - Hallow's Victim\06 - Hallow's Victim.wav

Pre-gap length 0:00:01.37

Peak level 97.9 %
Extraction speed 1.5 X
Track quality 99.9 %
Test CRC 59C6B03C
Copy CRC 59C6B03C
Accurately ripped (confidence 3) [FCAD135D] (AR v2)
Copy OK

Track 7

Filename F:\The Walking Dead - Hallow's Victim\07 - The Sadist.wav

Pre-gap length 0:00:02.00

Peak level 96.0 %
Extraction speed 1.8 X
Track quality 99.9 %
Test CRC 7789AA93
Copy CRC 7789AA93
Accurately ripped (confidence 3) [DF9640C9] (AR v2)
Copy OK

Track 8

Filename F:\The Walking Dead - Hallow's Victim\08 - Just Friends (Empty Love).wav

Pre-gap length 0:00:03.00

Peak level 98.0 %
Extraction speed 1.9 X
Track quality 99.9 %
Test CRC 8013C7AE
Copy CRC 8013C7AE
Accurately ripped (confidence 3) [E84A07D8] (AR v2)
Copy OK

Track 9

Filename F:\The Walking Dead - Hallow's Victim\09 - Prayer for the (M)asses.wav

Pre-gap length 0:00:01.37

Peak level 72.1 %
Extraction speed 2.2 X
Track quality 100.0 %
Test CRC A2817BE0
Copy CRC A2817BE0
Accurately ripped (confidence 3) [E943D4A8] (AR v2)
Copy OK

Track 10

Filename F:\The Walking Dead - Hallow's Victim\10 - Look Behind You.wav

Pre-gap length 0:00:03.00

Peak level 98.0 %
Extraction speed 2.3 X
Track quality 100.0 %
Test CRC 45FCC7BD
Copy CRC 45FCC7BD
Accurately ripped (confidence 3) [A6B09FAE] (AR v2)
Copy OK

Track 11

Filename F:\The Walking Dead - Hallow's Victim\11 - 11.wav

Peak level 0.0 %
Extraction speed 0.1 X
Track quality 97.2 %
Test CRC D6CD24A9
Copy CRC D6CD24A9
Track not present in AccurateRip database
Copy OK

Track 12

Filename F:\The Walking Dead - Hallow's Victim\12 - 12.wav

Peak level 0.0 %
Extraction speed 0.2 X
Track quality 98.4 %
Test CRC 12A8B6BE
Copy CRC 12A8B6BE
Accurately ripped (confidence 2) [1A2CEAC0] (AR v1)
Copy OK

Track 13

Filename F:\The Walking Dead - Hallow's Victim\13 - 13.wav

Peak level 0.0 %
Extraction speed 0.4 X
Track quality 100.0 %
Test CRC 4CEF470B
Copy CRC 4CEF470B
Accurately ripped (confidence 2) [D520B7A9] (AR v1)
Copy OK

Track 14

Filename F:\The Walking Dead - Hallow's Victim\14 - 14.wav

Peak level 0.0 %
Extraction speed 0.1 X
Track quality 97.2 %
Test CRC 81A5D807
Copy CRC 81A5D807
Track not present in AccurateRip database
Copy OK

Track 15

Filename F:\The Walking Dead - Hallow's Victim\15 - 15.wav

Peak level 0.0 %
Extraction speed 0.2 X
Track quality 98.4 %
Test CRC 231029D6
Copy CRC 231029D6
Accurately ripped (confidence 2) [13E4DD66] (AR v1)
Copy OK

Track 16

Filename F:\The Walking Dead - Hallow's Victim\16 - 16.wav

Peak level 0.0 %
Extraction speed 0.4 X
Track quality 100.0 %
Test CRC 69217CF8
Copy CRC 69217CF8
Accurately ripped (confidence 2) [600747D0] (AR v1)
Copy OK

Track 17

Filename F:\The Walking Dead - Hallow's Victim\17 - 17.wav

Peak level 0.0 %
Extraction speed 0.1 X
Track quality 97.2 %
Test CRC A28BFF4A
Copy CRC A28BFF4A
Track not present in AccurateRip database
Copy OK

Track 18

Filename F:\The Walking Dead - Hallow's Victim\18 - 18.wav

Peak level 0.0 %
Extraction speed 0.2 X
Track quality 98.4 %
Test CRC 59F25CD4
Copy CRC 59F25CD4
Accurately ripped (confidence 2) [0C94650B] (AR v1)
Copy OK

Track 19

Filename F:\The Walking Dead - Hallow's Victim\19 - 19.wav

Peak level 0.0 %
Extraction speed 0.4 X
Track quality 100.0 %
Test CRC E8660DF3
Copy CRC E8660DF3
Accurately ripped (confidence 2) [116E9C35] (AR v1)
Copy OK

Track 20

Filename F:\The Walking Dead - Hallow's Victim\20 - 20.wav

Peak level 0.0 %
Extraction speed 0.1 X
Track quality 97.2 %
Test CRC E3C81C1A
Copy CRC E3C81C1A
Track not present in AccurateRip database
Copy OK

Track 21

Filename F:\The Walking Dead - Hallow's Victim\21 - 21.wav

Peak level 0.0 %
Extraction speed 0.2 X
Track quality 98.4 %
Test CRC 187989F8
Copy CRC 187989F8
Accurately ripped (confidence 2) [060E5772] (AR v1)
Copy OK

Track 22

Filename F:\The Walking Dead - Hallow's Victim\22 - 22.wav

Peak level 0.0 %
Extraction speed 0.4 X
Track quality 100.0 %
Test CRC E8F89504
Copy CRC E8F89504
Accurately ripped (confidence 2) [60BAF0A8] (AR v1)
Copy OK

Track 23

Filename F:\The Walking Dead - Hallow's Victim\23 - 23.wav

Peak level 0.0 %
Extraction speed 0.1 X
Track quality 97.2 %
Test CRC 9E08DD22
Copy CRC 9E08DD22
Track not present in AccurateRip database
Copy OK

Track 24

Filename F:\The Walking Dead - Hallow's Victim\24 - 24.wav

Peak level 0.0 %
Extraction speed 0.2 X
Track quality 98.4 %
Test CRC 32087F76
Copy CRC 32087F76
Accurately ripped (confidence 2) [49D54AC6] (AR v1)
Copy OK

Track 25

Filename F:\The Walking Dead - Hallow's Victim\25 - 25.wav

Peak level 0.0 %
Extraction speed 0.4 X
Track quality 100.0 %
Test CRC 234E394A
Copy CRC 234E394A
Accurately ripped (confidence 2) [120680D8] (AR v1)
Copy OK

Track 26

Filename F:\The Walking Dead - Hallow's Victim\26 - 26.wav

Peak level 0.0 %
Extraction speed 0.1 X
Track quality 97.2 %
Test CRC 8E113B74
Copy CRC 8E113B74
Track not present in AccurateRip database
Copy OK

Track 27

Filename F:\The Walking Dead - Hallow's Victim\27 - 27.wav

Peak level 0.0 %
Extraction speed 0.2 X
Track quality 98.4 %
Test CRC 209A880F
Copy CRC 209A880F
Accurately ripped (confidence 2) [8DB13D1F] (AR v1)
Copy OK

Track 28

Filename F:\The Walking Dead - Hallow's Victim\28 - 28.wav

Peak level 0.0 %
Extraction speed 0.4 X
Track quality 100.0 %
Test CRC CFF3059C
Copy CRC CFF3059C
Accurately ripped (confidence 2) [C3437339] (AR v1)
Copy OK

Track 29

Filename F:\The Walking Dead - Hallow's Victim\29 - 29.wav

Peak level 0.0 %
Extraction speed 0.1 X
Track quality 97.2 %
Test CRC 59746587
Copy CRC 59746587
Track not present in AccurateRip database
Copy OK

Track 30

Filename F:\The Walking Dead - Hallow's Victim\30 - 30.wav

Peak level 0.0 %
Extraction speed 0.2 X
Track quality 98.4 %
Test CRC F1B1B0CC
Copy CRC F1B1B0CC
Accurately ripped (confidence 2) [D0A5E600] (AR v1)
Copy OK

Track 31

Filename F:\The Walking Dead - Hallow's Victim\31 - 31.wav

Peak level 0.0 %
Extraction speed 0.4 X
Track quality 100.0 %
Test CRC 27FA434C
Copy CRC 27FA434C
Accurately ripped (confidence 2) [4E15C7BA] (AR v1)
Copy OK

Track 32

Filename F:\The Walking Dead - Hallow's Victim\32 - 32.wav

Peak level 0.0 %
Extraction speed 0.1 X
Track quality 97.2 %
Test CRC F5F59A42
Copy CRC F5F59A42
Track not present in AccurateRip database
Copy OK

Track 33

Filename F:\The Walking Dead - Hallow's Victim\33 - 33.wav

Peak level 0.0 %
Extraction speed 0.2 X
Track quality 98.4 %
Test CRC 32B237B0
Copy CRC 32B237B0
Accurately ripped (confidence 2) [D222D9C1] (AR v1)
Copy OK

Track 34

Filename F:\The Walking Dead - Hallow's Victim\34 - 34.wav

Peak level 0.0 %
Extraction speed 0.2 X
Track quality 98.4 %
Test CRC 92FAE030
Copy CRC 92FAE030
Accurately ripped (confidence 2) [292500B6] (AR v1)
Copy OK

Track 35

Filename F:\The Walking Dead - Hallow's Victim\35 - 35.wav

Peak level 0.0 %
Extraction speed 0.1 X
Track quality 97.2 %
Test CRC 36943DB7
Copy CRC 36943DB7
Track not present in AccurateRip database
Copy OK

Track 36

Filename F:\The Walking Dead - Hallow's Victim\36 - 36.wav

Peak level 0.0 %
Extraction speed 0.2 X
Track quality 98.4 %
Test CRC EA7396B5
Copy CRC EA7396B5
Accurately ripped (confidence 2) [2E7DCC5A] (AR v1)
Copy OK

Track 37

Filename F:\The Walking Dead - Hallow's Victim\37 - 37.wav

Peak level 0.0 %
Extraction speed 0.4 X
Track quality 100.0 %
Test CRC B6EC7EDE
Copy CRC B6EC7EDE
Accurately ripped (confidence 2) [7E92AD2A] (AR v1)
Copy OK

Track 38

Filename F:\The Walking Dead - Hallow's Victim\38 - 38.wav

Peak level 0.0 %
Extraction speed 0.1 X
Track quality 97.2 %
Test CRC C83A56F9
Copy CRC C83A56F9
Track not present in AccurateRip database
Copy OK

Track 39

Filename F:\The Walking Dead - Hallow's Victim\39 - 39.wav

Peak level 0.0 %
Extraction speed 0.2 X
Track quality 98.4 %
Test CRC 9EF7C1A0
Copy CRC 9EF7C1A0
Accurately ripped (confidence 2) [06AE74D6] (AR v1)
Copy OK

Track 40

Filename F:\The Walking Dead - Hallow's Victim\40 - 40.wav

Peak level 0.0 %
Extraction speed 0.4 X
Track quality 100.0 %
Test CRC 38BC83AC
Copy CRC 38BC83AC
Accurately ripped (confidence 2) [2FCA3D4F] (AR v1)
Copy OK

Track 41

Filename F:\The Walking Dead - Hallow's Victim\41 - 41.wav

Peak level 0.0 %
Extraction speed 0.1 X
Track quality 97.2 %
Test CRC 331DC902
Copy CRC 331DC902
Track not present in AccurateRip database
Copy OK

Track 42

Filename F:\The Walking Dead - Hallow's Victim\42 - 42.wav

Peak level 0.0 %
Extraction speed 0.2 X
Track quality 98.4 %
Test CRC DAAB49C6
Copy CRC DAAB49C6
Accurately ripped (confidence 2) [6B3467F7] (AR v1)
Copy OK

Track 43

Filename F:\The Walking Dead - Hallow's Victim\43 - 43.wav

Peak level 0.0 %
Extraction speed 0.4 X
Track quality 100.0 %
Test CRC 2CE090DE
Copy CRC 2CE090DE
Accurately ripped (confidence 2) [1CC72F8A] (AR v1)
Copy OK

Track 44

Filename F:\The Walking Dead - Hallow's Victim\44 - 44.wav

Peak level 0.0 %
Extraction speed 0.1 X
Track quality 97.2 %
Test CRC 82C200FF
Copy CRC 82C200FF
Track not present in AccurateRip database
Copy OK

Track 45

Filename F:\The Walking Dead - Hallow's Victim\45 - 45.wav

Peak level 0.0 %
Extraction speed 0.2 X
Track quality 98.4 %
Test CRC 5783BA0C
Copy CRC 5783BA0C
Accurately ripped (confidence 2) [F85910CF] (AR v1)
Copy OK

Track 46

Filename F:\The Walking Dead - Hallow's Victim\46 - 46.wav

Peak level 0.0 %
Extraction speed 0.4 X
Track quality 100.0 %
Test CRC BF9897F1
Copy CRC BF9897F1
Accurately ripped (confidence 2) [6BDABF94] (AR v1)
Copy OK

Track 47

Filename F:\The Walking Dead - Hallow's Victim\47 - 47.wav

Peak level 0.0 %
Extraction speed 0.1 X
Track quality 97.2 %
Test CRC F9B37973
Copy CRC F9B37973
Track not present in AccurateRip database
Copy OK

Track 48

Filename F:\The Walking Dead - Hallow's Victim\48 - 48.wav

Peak level 0.0 %
Extraction speed 0.2 X
Track quality 98.4 %
Test CRC CBE8AC1C
Copy CRC CBE8AC1C
Accurately ripped (confidence 2) [85EE0461] (AR v1)
Copy OK

Track 49

Filename F:\The Walking Dead - Hallow's Victim\49 - 49.wav

Peak level 0.0 %
Extraction speed 0.5 X
Track quality 100.0 %
Test CRC 32DC6E2F
Copy CRC 32DC6E2F
Accurately ripped (confidence 2) [7F4913C7] (AR v1)
Copy OK

Track 50

Filename F:\The Walking Dead - Hallow's Victim\50 - 50.wav

Peak level 0.0 %
Extraction speed 0.1 X
Track quality 97.2 %
Test CRC 2BEDA72E
Copy CRC 2BEDA72E
Track not present in AccurateRip database
Copy OK

Track 51

Filename F:\The Walking Dead - Hallow's Victim\51 - 51.wav

Peak level 0.0 %
Extraction speed 0.2 X
Track quality 98.4 %
Test CRC 72A56D38
Copy CRC 72A56D38
Accurately ripped (confidence 2) [5757AD18] (AR v1)
Copy OK

Track 52

Filename F:\The Walking Dead - Hallow's Victim\52 - 52.wav

Peak level 0.0 %
Extraction speed 0.4 X
Track quality 100.0 %
Test CRC FD12220B
Copy CRC FD12220B
Accurately ripped (confidence 2) [F4BBA3C6] (AR v1)
Copy OK

Track 53

Filename F:\The Walking Dead - Hallow's Victim\53 - 53.wav

Peak level 0.0 %
Extraction speed 0.1 X
Track quality 97.2 %
Test CRC E3BD15BB
Copy CRC E3BD15BB
Track not present in AccurateRip database
Copy OK

Track 54

Filename F:\The Walking Dead - Hallow's Victim\54 - 54.wav

Peak level 0.0 %
Extraction speed 0.2 X
Track quality 98.4 %
Test CRC 6FCAAA6C
Copy CRC 6FCAAA6C
Accurately ripped (confidence 2) [2F0F34A9] (AR v1)
Copy OK

Track 55

Filename F:\The Walking Dead - Hallow's Victim\55 - 55.wav

Peak level 0.0 %
Extraction speed 0.4 X
Track quality 100.0 %
Test CRC D8B6FA66
Copy CRC D8B6FA66
Accurately ripped (confidence 2) [082EF818] (AR v1)
Copy OK

Track 56

Filename F:\The Walking Dead - Hallow's Victim\56 - 56.wav

Peak level 0.0 %
Extraction speed 0.1 X
Track quality 97.2 %
Test CRC 4182EC01
Copy CRC 4182EC01
Track not present in AccurateRip database
Copy OK

Track 57

Filename F:\The Walking Dead - Hallow's Victim\57 - 57.wav

Peak level 0.0 %
Extraction speed 0.2 X
Track quality 98.4 %
Test CRC F6374DD7
Copy CRC F6374DD7
Accurately ripped (confidence 2) [73C0715F] (AR v1)
Copy OK

Track 58

Filename F:\The Walking Dead - Hallow's Victim\58 - 58.wav

Peak level 0.0 %
Extraction speed 0.5 X
Track quality 100.0 %
Test CRC 8625C176
Copy CRC 8625C176
Accurately ripped (confidence 2) [F554EA47] (AR v1)
Copy OK

Track 59

Filename F:\The Walking Dead - Hallow's Victim\59 - 59.wav

Peak level 0.0 %
Extraction speed 0.1 X
Track quality 97.2 %
Test CRC AE0EB602
Copy CRC AE0EB602
Track not present in AccurateRip database
Copy OK

Track 60

Filename F:\The Walking Dead - Hallow's Victim\60 - 60.wav

Peak level 0.0 %
Extraction speed 0.2 X
Track quality 98.4 %
Test CRC 3DAD3222
Copy CRC 3DAD3222
Accurately ripped (confidence 2) [E147438A] (AR v1)
Copy OK

Track 61

Filename F:\The Walking Dead - Hallow's Victim\61 - Outro.wav

Peak level 37.6 %
Extraction speed 1.1 X
Track quality 100.0 %
Test CRC 8E919AC5
Copy CRC 8E919AC5
Accurately ripped (confidence 2) [A85FF1ED] (AR v2)
Copy OK


44 track(s) accurately ripped
17 track(s) not present in the AccurateRip database

Some tracks could not be verified as accurate

No errors occurred

End of status report

---- CUETools DB Plugin V2.1.3

[CTDB TOCID: VHrVb_yprml6nNwZ8vgTO8c9_uA-] found, Submit result: already submitted
[807dbd30] (2/2) Accurately ripped


==== Log checksum 3E286E080EA9CF0A5C2262BA4D429F710A35460076C9A393442ED7AB86687B04 ====

cue
REM GENRE Metal
REM DATE 2010
REM DISCID 6C0DF83D
REM COMMENT "ExactAudioCopy v1.0b3"
FILE "01 - Darkness.wav" WAVE
TRACK 01 AUDIO
INDEX 01 00:00:00
TRACK 02 AUDIO
INDEX 00 03:27:69
FILE "02 - The Walking Dead.wav" WAVE
INDEX 01 00:00:00
TRACK 03 AUDIO
INDEX 00 11:42:58
FILE "03 - White Stallions.wav" WAVE
INDEX 01 00:00:00
TRACK 04 AUDIO
INDEX 00 05:23:55
FILE "04 - War Is Our Destiny.wav" WAVE
INDEX 01 00:00:00
TRACK 05 AUDIO
INDEX 00 04:09:73
FILE "05 - Mystic Lady.wav" WAVE
INDEX 01 00:00:00
TRACK 06 AUDIO
INDEX 00 07:46:67
FILE "06 - Hallow's Victim.wav" WAVE
INDEX 01 00:00:00
TRACK 07 AUDIO
INDEX 00 02:42:74
FILE "07 - The Sadist.wav" WAVE
INDEX 01 00:00:00
TRACK 08 AUDIO
INDEX 00 03:58:00
FILE "08 - Just Friends (Empty Love).wav" WAVE
INDEX 01 00:00:00
TRACK 09 AUDIO
INDEX 00 05:45:56
FILE "09 - Prayer for the (M)asses.wav" WAVE
INDEX 01 00:00:00
TRACK 10 AUDIO
INDEX 00 04:53:71
FILE "10 - Look Behind You.wav" WAVE
INDEX 01 00:00:00
FILE "11 - 11.wav" WAVE
TRACK 11 AUDIO
INDEX 01 00:00:00
FILE "12 - 12.wav" WAVE
TRACK 12 AUDIO
INDEX 01 00:00:00
FILE "13 - 13.wav" WAVE
TRACK 13 AUDIO
INDEX 01 00:00:00
FILE "14 - 14.wav" WAVE
TRACK 14 AUDIO
INDEX 01 00:00:00
FILE "15 - 15.wav" WAVE
TRACK 15 AUDIO
INDEX 01 00:00:00
FILE "16 - 16.wav" WAVE
TRACK 16 AUDIO
INDEX 01 00:00:00
FILE "17 - 17.wav" WAVE
TRACK 17 AUDIO
INDEX 01 00:00:00
FILE "18 - 18.wav" WAVE
TRACK 18 AUDIO
INDEX 01 00:00:00
FILE "19 - 19.wav" WAVE
TRACK 19 AUDIO
INDEX 01 00:00:00
FILE "20 - 20.wav" WAVE
TRACK 20 AUDIO
INDEX 01 00:00:00
FILE "21 - 21.wav" WAVE
TRACK 21 AUDIO
INDEX 01 00:00:00
FILE "22 - 22.wav" WAVE
TRACK 22 AUDIO
INDEX 01 00:00:00
FILE "23 - 23.wav" WAVE
TRACK 23 AUDIO
INDEX 01 00:00:00
FILE "24 - 24.wav" WAVE
TRACK 24 AUDIO
INDEX 01 00:00:00
FILE "25 - 25.wav" WAVE
TRACK 25 AUDIO
INDEX 01 00:00:00
FILE "26 - 26.wav" WAVE
TRACK 26 AUDIO
INDEX 01 00:00:00
FILE "27 - 27.wav" WAVE
TRACK 27 AUDIO
INDEX 01 00:00:00
FILE "28 - 28.wav" WAVE
TRACK 28 AUDIO
INDEX 01 00:00:00
FILE "29 - 29.wav" WAVE
TRACK 29 AUDIO
INDEX 01 00:00:00
FILE "30 - 30.wav" WAVE
TRACK 30 AUDIO
INDEX 01 00:00:00
FILE "31 - 31.wav" WAVE
TRACK 31 AUDIO
INDEX 01 00:00:00
FILE "32 - 32.wav" WAVE
TRACK 32 AUDIO
INDEX 01 00:00:00
FILE "33 - 33.wav" WAVE
TRACK 33 AUDIO
INDEX 01 00:00:00
FILE "34 - 34.wav" WAVE
TRACK 34 AUDIO
INDEX 01 00:00:00
FILE "35 - 35.wav" WAVE
TRACK 35 AUDIO
INDEX 01 00:00:00
FILE "36 - 36.wav" WAVE
TRACK 36 AUDIO
INDEX 01 00:00:00
FILE "37 - 37.wav" WAVE
TRACK 37 AUDIO
INDEX 01 00:00:00
FILE "38 - 38.wav" WAVE
TRACK 38 AUDIO
INDEX 01 00:00:00
FILE "39 - 39.wav" WAVE
TRACK 39 AUDIO
INDEX 01 00:00:00
FILE "40 - 40.wav" WAVE
TRACK 40 AUDIO
INDEX 01 00:00:00
FILE "41 - 41.wav" WAVE
TRACK 41 AUDIO
INDEX 01 00:00:00
FILE "42 - 42.wav" WAVE
TRACK 42 AUDIO
INDEX 01 00:00:00
FILE "43 - 43.wav" WAVE
TRACK 43 AUDIO
INDEX 01 00:00:00
FILE "44 - 44.wav" WAVE
TRACK 44 AUDIO
INDEX 01 00:00:00
FILE "45 - 45.wav" WAVE
TRACK 45 AUDIO
INDEX 01 00:00:00
FILE "46 - 46.wav" WAVE
TRACK 46 AUDIO
INDEX 01 00:00:00
FILE "47 - 47.wav" WAVE
TRACK 47 AUDIO
INDEX 01 00:00:00
FILE "48 - 48.wav" WAVE
TRACK 48 AUDIO
INDEX 01 00:00:00
FILE "49 - 49.wav" WAVE
TRACK 49 AUDIO
INDEX 01 00:00:00
FILE "50 - 50.wav" WAVE
TRACK 50 AUDIO
INDEX 01 00:00:00
FILE "51 - 51.wav" WAVE
TRACK 51 AUDIO
INDEX 01 00:00:00
FILE "52 - 52.wav" WAVE
TRACK 52 AUDIO
INDEX 01 00:00:00
FILE "53 - 53.wav" WAVE
TRACK 53 AUDIO
INDEX 01 00:00:00
FILE "54 - 54.wav" WAVE
TRACK 54 AUDIO
INDEX 01 00:00:00
FILE "55 - 55.wav" WAVE
TRACK 55 AUDIO
INDEX 01 00:00:00
FILE "56 - 56.wav" WAVE
TRACK 56 AUDIO
INDEX 01 00:00:00
FILE "57 - 57.wav" WAVE
TRACK 57 AUDIO
INDEX 01 00:00:00
FILE "58 - 58.wav" WAVE
TRACK 58 AUDIO
INDEX 01 00:00:00
FILE "59 - 59.wav" WAVE
TRACK 59 AUDIO
INDEX 01 00:00:00
FILE "60 - 60.wav" WAVE
TRACK 60 AUDIO
INDEX 01 00:00:00
FILE "61 - Outro.wav" WAVE
TRACK 61 AUDIO
INDEX 01 00:00:00

_________________


Top
 Profile E-mail  
 
 
PostPosted: 26 Jul 2019 
Хиппей (support team)
User avatar
Joined: 30 Jul 2007
Posts: 118485
Lоcаtion: Киев (Kyiv, UA)
Age: 46
Name: Andrey
Чёт какая-то сомнительная запись. Ну да лады. Автору запроса понравилось - поиск закрывается.

Топик переносится в "Бухту" :kro:

_________________


Top
 Profile E-mail  
 
 
PostPosted: 01 Aug 2019 
Power Metal Maniac
User avatar
Joined: 09 Aug 2008
Posts: 7123
Lоcаtion: Москва
Age: 42
Name: Егор
название топика откорректируйте - Victus

_________________
Long Live Metal!


Top
 Profile  
 
 
PostPosted: 03 Aug 2019 
консэрваторъ
User avatar
Joined: 11 Aug 2007
Posts: 17582
Lоcаtion: Псков
Age: 46
Name: Сергей
Сделат...

_________________
THRASH 'EM ALL


Top
 Profile E-mail  
 
 
PostPosted: 07 Aug 2019 
5-speed satisfactor
User avatar
Joined: 16 Feb 2009
Posts: 3854
Warnings: 1
Lоcаtion: New York, USA
Age: 42
Name: Leonid
Исправили

_________________
Death rules! Metal to all who oppose!


Top
 Profile  
 
 
PostPosted: 30 Aug 2019 
5-speed satisfactor
User avatar
Joined: 16 Feb 2009
Posts: 3854
Warnings: 1
Lоcаtion: New York, USA
Age: 42
Name: Leonid
https://yadi.sk/mail?hash=JHpP6iuMwzxrtgqOpkE%2BfCuzyd%2FFnqdyONLwBjthdc3NTsRL6CxK1lnJZcAd9lBZq%2FJ6bpmRyOJonT3VoXnDag%3D%3D&uid=155099347


Даша, а это бутлег?

_________________
Death rules! Metal to all who oppose!


Top
 Profile  
 
 
PostPosted: 04 Sep 2019 
5-speed satisfactor
User avatar
Joined: 16 Feb 2009
Posts: 3854
Warnings: 1
Lоcаtion: New York, USA
Age: 42
Name: Leonid
https://yadi.sk/mail?hash=JHpP6iuMwzxrtgqOpkE%2BfCuzyd%2FFnqdyONLwBjthdc3NTsRL6CxK1lnJZcAd9lBZq%2FJ6bpmRyOJonT3VoXnDag%3D%3D&uid=155099347


Даша, а это бутлег?



Xyй был положен на мой вопрос. Огромный и жЫрный. Ну что ж, готов идти в баню на месяц! :crazy:

_________________
Death rules! Metal to all who oppose!


Top
 Profile  
 
 
PostPosted: 04 Sep 2019 
Хиппей (support team)
User avatar
Joined: 30 Jul 2007
Posts: 118485
Lоcаtion: Киев (Kyiv, UA)
Age: 46
Name: Andrey
А покажи :tro:

_________________


Top
 Profile E-mail  
 
Display posts from previous:  Sort by  
Post new topic Reply to topic  [ 31 posts ]  Go to page 1, 2  Next

All times are UTC + 3 hours


Who is online

Users browsing this forum: No registered users and 2 guests


You cannot post new topics in this forum
You cannot reply to topics in this forum
You cannot edit your posts in this forum
You cannot delete your posts in this forum
You cannot post attachments in this forum

Search for:
Яндекс.Метрика
Powered by phpBB © 2000, 2002, 2005, 2007 phpBB Group