\m/ 80's metal \m/

Информационно-аналитический форум "80 см пыли" (In Search We Trust) "У нас никто никуда не спешит"
Me For You - http://me-4u.com
It is currently 21 Nov 2018

All times are UTC + 3 hours

Spoiler
Chat - temporary registration for foreign users (please leave your application here)







Post new topic Reply to topic  [ 6 posts ] 
Author Message
 
PostPosted: 11 Sep 2013 
Генеральный thrasher
User avatar
Joined: 03 Oct 2008
Posts: 3510
Lоcаtion: Ханты-Мансийский АО
Age: 43
Name: Сергей
Image

Year:1986
Style:Heavy Metal
Country:France
Audio:Wv+Cue+Log+Scans
Size:448Mb

Line-Up:
Christian "Zouille" Augustin - vocals
Didier Demajean - guitars
Stéphane Dumont - guitars
Daniel Lapp - bass
Jean Philippe "Bob Snake" Dumont - drums

Tracklist:
1. La Hargne des Tordus 04:45
2. Chasse le Dragon 04:47
3. Le Dernier des Travaux d'Hercules 03:46
4. Quand un Aveugle Rêve 06:37
5. Mourir Pour une Princesse 05:02
6. La Montagne Qui Saigne 05:15
7. Marchand d'Hommes 06:46
8. Messager 04:27
9. La Huitième Couleur de l'Arc-en-Ciel 04:24
10. Sagittarius 03:46
11. Elephant Man 04:44
12. Win Her Heart 03:02
13. Flesh And Bones 06:41

"Cue"
REM GENRE Metal
REM DATE 1986
REM DISCID C70F810D
REM COMMENT "ExactAudioCopy v0.99pb5"
PERFORMER "Sortilege "
TITLE "L'armes De Heros"
FILE "Sortilege - L'armes De Heros.wv" WAVE
TRACK 01 AUDIO
TITLE "La Hargne Des Tordus"
PERFORMER "Sortilege "
INDEX 00 00:00:00
INDEX 01 00:00:32
TRACK 02 AUDIO
TITLE "Chasse Le Dragon"
PERFORMER "Sortilege "
INDEX 01 04:46:12
TRACK 03 AUDIO
TITLE "Le Dernier Des Travaux d'Hercule"
PERFORMER "Sortilege "
INDEX 01 09:33:70
TRACK 04 AUDIO
TITLE "Quand Un Aveugle Rкve"
PERFORMER "Sortilege "
INDEX 01 13:20:40
TRACK 05 AUDIO
TITLE "Mourir Pour Une Princesse"
PERFORMER "Sortilege "
INDEX 01 19:57:60
TRACK 06 AUDIO
TITLE "La Montagne Qui Saigne"
PERFORMER "Sortilege "
INDEX 00 25:00:30
INDEX 01 25:00:37
TRACK 07 AUDIO
TITLE "Marchand d'Hommes"
PERFORMER "Sortilege "
INDEX 00 30:15:57
INDEX 01 30:15:60
TRACK 08 AUDIO
TITLE "Messager"
PERFORMER "Sortilege "
INDEX 00 37:02:12
INDEX 01 37:02:25
TRACK 09 AUDIO
TITLE "La Huitiиme Couleur de l'Arc-En-Ciel"
PERFORMER "Sortilege "
INDEX 01 41:29:30
TRACK 10 AUDIO
TITLE "Sagittarius (Bonus Track)"
PERFORMER "Sortilege "
INDEX 01 45:53:70
TRACK 11 AUDIO
TITLE "Elephant Man (Bonus Track)"
PERFORMER "Sortilege "
INDEX 01 49:40:17
TRACK 12 AUDIO
TITLE "Win Her Heart (Bonus Track)"
PERFORMER "Sortilege "
INDEX 01 54:25:12
TRACK 13 AUDIO
TITLE "Flesh And Bones (Bonus Track)"
PERFORMER "Sortilege "
INDEX 00 59:27:65
INDEX 01 59:27:72

"Log"
Exact Audio Copy V0.99 prebeta 5 from 4. May 2009

EAC extraction logfile from 22. December 2009, 18:39

Sortilege / L'armes De Heros

Used drive : Optiarc DVD RW AD-7200A Adapter: 2 ID: 2

Read mode : Secure
Utilize accurate stream : Yes
Defeat audio cache : Yes
Make use of C2 pointers : No

Read offset correction : 48
Overread into Lead-In and Lead-Out : No
Fill up missing offset samples with silence : Yes
Delete leading and trailing silent blocks : No
Null samples used in CRC calculations : Yes
Used interface : Native Win32 interface for Win NT & 2000

Used output format : Internal WAV Routines
Sample format : 44.100 Hz; 16 Bit; Stereo


TOC of the extracted CD

Track | Start | Length | Start sector | End sector
---------------------------------------------------------
1 | 0:00.32 | 4:45.55 | 32 | 21461
2 | 4:46.12 | 4:47.58 | 21462 | 43044
3 | 9:33.70 | 3:46.45 | 43045 | 60039
4 | 13:20.40 | 6:37.20 | 60040 | 89834
5 | 19:57.60 | 5:02.52 | 89835 | 112536
6 | 25:00.37 | 5:15.23 | 112537 | 136184
7 | 30:15.60 | 6:46.40 | 136185 | 166674
8 | 37:02.25 | 4:27.05 | 166675 | 186704
9 | 41:29.30 | 4:24.40 | 186705 | 206544
10 | 45:53.70 | 3:46.22 | 206545 | 223516
11 | 49:40.17 | 4:44.70 | 223517 | 244886
12 | 54:25.12 | 5:02.60 | 244887 | 267596
13 | 59:27.72 | 6:41.38 | 267597 | 297709


Range status and errors

Selected range

Filename D:\cd torrents\Sortilege - 1986 - L'armes De Heros\Sortilege - L'armes De Heros.wav

Peak level 98.8 %
Range quality 100.0 %
Test CRC 1B79B6DB
Copy CRC 1B79B6DB
Copy OK

No errors occurred


AccurateRip summary

Track 1 cannot be verified as accurate (confidence 1) [4A78C106], AccurateRip returned [83288D06]
Track 2 cannot be verified as accurate (confidence 1) [FC85D24B], AccurateRip returned [F25C1AC3]
Track 3 cannot be verified as accurate (confidence 1) [B19290F7], AccurateRip returned [CA7D1A27]
Track 4 cannot be verified as accurate (confidence 1) [949CE6DD], AccurateRip returned [24AF85AD]
Track 5 cannot be verified as accurate (confidence 1) [7C5C208B], AccurateRip returned [CD0EB66B]
Track 6 cannot be verified as accurate (confidence 1) [BFC3D572], AccurateRip returned [45A17F62]
Track 7 cannot be verified as accurate (confidence 1) [AA1FDC38], AccurateRip returned [31301460]
Track 8 cannot be verified as accurate (confidence 1) [9951993E], AccurateRip returned [EFD664B6]
Track 9 cannot be verified as accurate (confidence 1) [55B70AEF], AccurateRip returned [E3B15A2F]
Track 10 not present in database
Track 11 not present in database
Track 12 not present in database
Track 13 not present in database

9 track(s) could not be verified as accurate
4 track(s) not present in the AccurateRip database

No tracks could be verified as accurate
You may have a different pressing from the one(s) in the database

End of status report


L'armes De Heros


Top
 Profile  
 
 
PostPosted: 11 Sep 2013 
Хиппей (support team)
User avatar
Joined: 30 Jul 2007
Posts: 108243
Lоcаtion: Киев (Kyiv, UA)
Age: 45
Name: Andrey
:thanx:

mirror: Narod

_________________


Top
 Profile E-mail  
 
 
PostPosted: 12 Sep 2013 
Трешер
User avatar
Joined: 25 Feb 2011
Posts: 1062
Lоcаtion: Харьков
Age: 42
Name: Aleksandr
Спасибо Андрей! :true:
А что за желтые капли из глаз катютси ???? :shok: Он же вроде не крокодилс :crazy:


Top
 Profile E-mail  
 
 
PostPosted: 12 Sep 2013 
DarkSage
User avatar
Joined: 24 Sep 2009
Posts: 925
Lоcаtion: Moscow
Name: Оксана
я стащила к себе первую ссылку... думала, что от Сергея.... а оказалось от kotov//
а внутренности также вавпаковые?

_________________
Image,Image


Top
 Profile E-mail  
 
 
PostPosted: 13 Sep 2013 
Трешер
User avatar
Joined: 25 Feb 2011
Posts: 1062
Lоcаtion: Харьков
Age: 42
Name: Aleksandr
Да


Top
 Profile E-mail  
 
 
PostPosted: 07 Oct 2016 
семерых одним ударом
Joined: 18 Aug 2007
Posts: 3794
Lоcаtion: Владивосток
Age: 43
Name: Николай Николаевич
кстати клевая банда, прямо сердце радуется при прослушивании


Top
 Profile  
 
Display posts from previous:  Sort by  
Post new topic Reply to topic  [ 6 posts ] 

All times are UTC + 3 hours


Who is online

Users browsing this forum: No registered users and 2 guests


You cannot post new topics in this forum
You cannot reply to topics in this forum
You cannot edit your posts in this forum
You cannot delete your posts in this forum
You cannot post attachments in this forum

Search for:
Яндекс.Метрика
Powered by phpBB © 2000, 2002, 2005, 2007 phpBB Group