\m/ 80's metal \m/

Информационно-аналитический форум "80 см пыли" (In Search We Trust) "У нас никто никуда не спешит"
Me For You - http://me-4u.com
It is currently 21 Sep 2018

All times are UTC + 3 hours

Spoiler
Chat - temporary registration for foreign users (please leave your application here)







Post new topic Reply to topic  [ 13 posts ] 
Author Message
 
PostPosted: 21 Jun 2013 
Я набрал 1000 сообщений!
Joined: 24 Oct 2009
Posts: 2029
Lоcаtion: Оренбург
Age: 55
Name: Юра
Поделитесь пожалуйста кто имеет...!
Image

Исполнитель: Snake Eye
Альбом: Wild Senses
Страна: France
Жанр: Hard Rock
Год: 2003

Band:
Boban: Milojevic: Lead Vocals
Michael: Guitars, Backing Vocals
Xavier: Guitars, Backing Vocals
Rickey: Bass, Backing Vocals
Dom: Drums, Backing Vocals

Tracks:
1. Countdown To Midnight
2. Downtown
3. Restless
4. Faith
5. Tears In My Eyes
6. Now
7. Hope
8. Make My Day
9. Kids In America

_________________
:dash: I am happy!


Top
 Profile E-mail  
 
 
PostPosted: 21 Jun 2013 
Хиппей (support team)
User avatar
Joined: 30 Jul 2007
Posts: 106363
Lоcаtion: Киев (Kyiv, UA)
Age: 45
Name: Andrey
Дык http://united-metal.ru/metal/hardnheavy ... t-320.html :pardon: (нижняя ссылка)

_________________


Top
 Profile E-mail  
 
 
PostPosted: 21 Jun 2013 
Я набрал 1000 сообщений!
Joined: 24 Oct 2009
Posts: 2029
Lоcаtion: Оренбург
Age: 55
Name: Юра
Файл в архиве, а он почему то не восстанавливается. :pardon: Месяц бьюсь...
Может, у кого восстанавливается, перекинет на Яндексдиск. Буду благодарен. :thanx:

_________________
:dash: I am happy!


Top
 Profile E-mail  
 
 
PostPosted: 21 Jun 2013 
Хиппей (support team)
User avatar
Joined: 30 Jul 2007
Posts: 106363
Lоcаtion: Киев (Kyiv, UA)
Age: 45
Name: Andrey
Да я скачал за пару минут. Щас освободюсь, пережму во флак и перелью.

_________________


Top
 Profile E-mail  
 
 
PostPosted: 21 Jun 2013 
Я набрал 1000 сообщений!
Joined: 24 Oct 2009
Posts: 2029
Lоcаtion: Оренбург
Age: 55
Name: Юра
:thanx: :thanx: :thanx: :true:

_________________
:dash: I am happy!


Top
 Profile E-mail  
 
 
PostPosted: 21 Jun 2013 
Хиппей (support team)
User avatar
Joined: 30 Jul 2007
Posts: 106363
Lоcаtion: Киев (Kyiv, UA)
Age: 45
Name: Andrey
К сожаления, сканов внутри нет, только мелкие фотки коробки с диском внутри.
Лог норм, но в куе не прописано ничего кроме длительности трэков, а мне переделывать некогда щас.

Музыка - современный хард-рок. С первого раза не очень понравилась...

Спектры ща гляну, а то звук глуховат, едрить.

Narod l Narod

logS
Exact Audio Copy V1.0 beta 3 from 29. August 2011

Отчёт EAC об извлечении, выполненном 11. января 2013, 17:42

Unknown Artist / Unknown Title

Дисковод: Optiarc DVD RW AD-7580S Adapter: 0 ID: 1

Режим чтения : Достоверность
Использование точного потока : Да
Отключение кэша аудио : Нет
Использование указателей C2 : Нет

Коррекция смещения при чтении : 6
Способность читать области Lead-in и Lead-out : Нет
Заполнение пропущенных сэмплов тишиной : Да
Удаление блоков с тишиной в начале и конце : Нет
При вычислениях CRC использовались нулевые сэмплы : Да
Интерфейс : Встроенный Win32-интерфейс для Win NT/2000

Выходной формат : Внутренние WAV-операции
Формат сэмплов : 44.100 Гц; 16 бит; стерео


TOC извлечённого CD

Трек | Старт | Длительность | Начальный сектор | Конечный сектор
---------------------------------------------------------------------
1 | 0:00.00 | 3:24.29 | 0 | 15328
2 | 3:24.29 | 4:26.10 | 15329 | 35288
3 | 7:50.39 | 4:25.52 | 35289 | 55215
4 | 12:16.16 | 3:42.44 | 55216 | 71909
5 | 15:58.60 | 4:21.39 | 71910 | 91523
6 | 20:20.24 | 4:54.70 | 91524 | 113643
7 | 25:15.19 | 4:20.13 | 113644 | 133156
8 | 29:35.32 | 4:26.24 | 133157 | 153130
9 | 34:01.56 | 4:14.03 | 153131 | 172183
10 | 40:47.59 | 0:47.22 | 183584 | 187130


Характеристики диапазона извлечения и сообщения об ошибках

Выбранный диапазон

Имя файла C:\Users\Валера\Documents\Unknown Artist - Unknown Title.wav

Пиковый уровень 100.0 %
Скорость извлечения 6.3 X
Качество диапазона 99.9 %
CRC теста 4788E486
CRC копии 4788E486
Копирование... OK

Ошибок не произошло


AccurateRip: сводка

Трек 1 отсутствует в базе данных
Трек 2 отсутствует в базе данных
Трек 3 отсутствует в базе данных
Трек 4 отсутствует в базе данных
Трек 5 отсутствует в базе данных
Трек 6 отсутствует в базе данных
Трек 7 отсутствует в базе данных
Трек 8 отсутствует в базе данных
Трек 9 отсутствует в базе данных

Ни одного трека нет в базе AccurateRip

Конец отчёта

---- CUETools DB Plugin V2.1.3

[CTDB TOCID: 9c.FhcuBaloo1hv3_RUgsWhHsrA-] disk not present in database, Submit result: 9c.FhcuBaloo1hv3_RUgsWhHsrA- has been uploaded


------------------------------------------------------------

Exact Audio Copy V1.0 beta 3 from 29. August 2011

Отчёт EAC об извлечении, выполненном 11. января 2013, 17:43

Unknown Artist / Unknown Title

Дисковод: Optiarc DVD RW AD-7580S Adapter: 0 ID: 1

Режим чтения : Достоверность
Использование точного потока : Да
Отключение кэша аудио : Нет
Использование указателей C2 : Нет

Коррекция смещения при чтении : 6
Способность читать области Lead-in и Lead-out : Нет
Заполнение пропущенных сэмплов тишиной : Да
Удаление блоков с тишиной в начале и конце : Нет
При вычислениях CRC использовались нулевые сэмплы : Да
Интерфейс : Встроенный Win32-интерфейс для Win NT/2000

Выходной формат : Внутренние WAV-операции
Формат сэмплов : 44.100 Гц; 16 бит; стерео


TOC извлечённого CD

Трек | Старт | Длительность | Начальный сектор | Конечный сектор
---------------------------------------------------------------------
1 | 0:00.00 | 3:24.29 | 0 | 15328
2 | 3:24.29 | 4:26.10 | 15329 | 35288
3 | 7:50.39 | 4:25.52 | 35289 | 55215
4 | 12:16.16 | 3:42.44 | 55216 | 71909
5 | 15:58.60 | 4:21.39 | 71910 | 91523
6 | 20:20.24 | 4:54.70 | 91524 | 113643
7 | 25:15.19 | 4:20.13 | 113644 | 133156
8 | 29:35.32 | 4:26.24 | 133157 | 153130
9 | 34:01.56 | 4:14.03 | 153131 | 172183
10 | 40:47.59 | 0:47.22 | 183584 | 187130


Характеристики диапазона извлечения и сообщения об ошибках

Выбранный диапазон

Имя файла C:\Users\Валера\Documents\Unknown Artist - Unknown Title.wav

Пиковый уровень 100.0 %
Скорость извлечения 6.3 X
Качество диапазона 99.9 %
CRC теста 4788E486
CRC копии 4788E486
Копирование... OK

Ошибок не произошло


AccurateRip: сводка

Трек 1 отсутствует в базе данных
Трек 2 отсутствует в базе данных
Трек 3 отсутствует в базе данных
Трек 4 отсутствует в базе данных
Трек 5 отсутствует в базе данных
Трек 6 отсутствует в базе данных
Трек 7 отсутствует в базе данных
Трек 8 отсутствует в базе данных
Трек 9 отсутствует в базе данных

Ни одного трека нет в базе AccurateRip

Конец отчёта

---- CUETools DB Plugin V2.1.3

[CTDB TOCID: 9c.FhcuBaloo1hv3_RUgsWhHsrA-] disk not present in database, Submit result: 9c.FhcuBaloo1hv3_RUgsWhHsrA- has been uploaded

cue
REM DISCID 7F09BF0A
REM COMMENT "ExactAudioCopy v1.0b3"
PERFORMER "Unknown Artist"
TITLE "Unknown Title"
FILE "Unknown Artist - Unknown Title.wav" WAVE
TRACK 01 AUDIO
TITLE "Трек01"
PERFORMER "Unknown Artist"
INDEX 01 00:00:00
TRACK 02 AUDIO
TITLE "Трек02"
PERFORMER "Unknown Artist"
INDEX 01 03:24:29
TRACK 03 AUDIO
TITLE "Трек03"
PERFORMER "Unknown Artist"
FLAGS DCP
INDEX 01 07:50:39
TRACK 04 AUDIO
TITLE "Трек04"
PERFORMER "Unknown Artist"
INDEX 01 12:16:16
TRACK 05 AUDIO
TITLE "Трек05"
PERFORMER "Unknown Artist"
FLAGS DCP
INDEX 01 15:58:60
TRACK 06 AUDIO
TITLE "Трек06"
PERFORMER "Unknown Artist"
INDEX 01 20:20:24
TRACK 07 AUDIO
TITLE "Трек07"
PERFORMER "Unknown Artist"
INDEX 01 25:15:19
TRACK 08 AUDIO
TITLE "Трек08"
PERFORMER "Unknown Artist"
FLAGS DCP
INDEX 01 29:35:32
TRACK 09 AUDIO
TITLE "Трек09"
PERFORMER "Unknown Artist"
INDEX 01 34:01:56

ImageImage

_________________


Top
 Profile E-mail  
 
 
PostPosted: 21 Jun 2013 
Хиппей (support team)
User avatar
Joined: 30 Jul 2007
Posts: 106363
Lоcаtion: Киев (Kyiv, UA)
Age: 45
Name: Andrey
Ну, на вид вполне себе лось :losik:

Image

_________________


Top
 Profile E-mail  
 
 
PostPosted: 21 Jun 2013 
Я набрал 1000 сообщений!
Joined: 24 Oct 2009
Posts: 2029
Lоcаtion: Оренбург
Age: 55
Name: Юра
Спасибо, Саныч! :thanx:
В названии заменить на [found]?

_________________
:dash: I am happy!


Top
 Profile E-mail  
 
 
PostPosted: 21 Jun 2013 
Хиппей (support team)
User avatar
Joined: 30 Jul 2007
Posts: 106363
Lоcаtion: Киев (Kyiv, UA)
Age: 45
Name: Andrey
А уже заменил и переношу в "Бухту" :pardon:

_________________


Top
 Profile E-mail  
 
 
PostPosted: 21 Jun 2013 
Хиппей (support team)
User avatar
Joined: 30 Jul 2007
Posts: 106363
Lоcаtion: Киев (Kyiv, UA)
Age: 45
Name: Andrey
В общем, нормальный такой альбом. Понравился. И... только сейчас понял, кого они мне иногда напоминают :oops:
Ранний Van Halen с Ли Ротом на вокале :dance:

6/10

_________________


Top
 Profile E-mail  
 
 
PostPosted: 21 Jun 2013 
Хиппей (support team)
User avatar
Joined: 30 Jul 2007
Posts: 106363
Lоcаtion: Киев (Kyiv, UA)
Age: 45
Name: Andrey
Еще тута подумалось, чёта название знакомое у группы. Полез на торрент...

Канадцы: http://rutracker.org/forum/viewtopic.php?t=3803837
Поляки: http://rutracker.org/forum/viewtopic.php?t=3448063

_________________


Top
 Profile E-mail  
 
 
PostPosted: 21 Jun 2013 
Я набрал 1000 сообщений!
Joined: 24 Oct 2009
Posts: 2029
Lоcаtion: Оренбург
Age: 55
Name: Юра
Да уж... расплодились. Запутаешься по неволе. :benya:

_________________
:dash: I am happy!


Top
 Profile E-mail  
 
 
PostPosted: 21 Jun 2013 
Хиппей (support team)
User avatar
Joined: 30 Jul 2007
Posts: 106363
Lоcаtion: Киев (Kyiv, UA)
Age: 45
Name: Andrey
А ента Алан Парсон виноватен :crazy:

(c)

_________________


Top
 Profile E-mail  
 
Display posts from previous:  Sort by  
Post new topic Reply to topic  [ 13 posts ] 

All times are UTC + 3 hours


Who is online

Users browsing this forum: No registered users and 1 guest


You cannot post new topics in this forum
You cannot reply to topics in this forum
You cannot edit your posts in this forum
You cannot delete your posts in this forum
You cannot post attachments in this forum

Search for:
Яндекс.Метрика
Powered by phpBB © 2000, 2002, 2005, 2007 phpBB Group