\m/ 80's metal \m/

Информационно-аналитический форум "80 см пыли" (In Search We Trust) "У нас никто никуда не спешит"
Me For You - http://me-4u.com
It is currently 20 Nov 2018

All times are UTC + 3 hours

Spoiler
Chat - temporary registration for foreign users (please leave your application here)







Post new topic Reply to topic  [ 9 posts ] 
Author Message
 
PostPosted: 20 Apr 2013 
Генеральный thrasher
User avatar
Joined: 03 Oct 2008
Posts: 3507
Lоcаtion: Ханты-Мансийский АО
Age: 43
Name: Сергей
Image

Year:2002
Style:Thrash Metal
Country:U.S.A.
Audio:Flac+Cue+Log+Scans
Size:239Mb
Source:my CD
Label:Mourning Star

Line-Up:
Lance Ozanix - lead vocals,guitar
David Ostwald - vocals,drums
Kelly Gillis - bass

Tracklist:
01. Did That Hurt? 03:58
02. Angel's Blood 04:35
03. Krystal Death's Horizon 05:38
04. Frozen Dead 07:21
05. Euthanize Tunnel Zone 01:24
06. Satan's Grave 04:29
07. Kill With A Vengance (Live Bonus) 03:50

"Cue"
REM GENRE "Thrash Metal"
REM DATE 2002
REM DISCID 5C075507
REM COMMENT "ExactAudioCopy v0.99pb5"
PERFORMER "Skitzo"
TITLE "Hellavator Musick"
FILE "Skitzo - Hellavator Musick.flac" WAVE
TRACK 01 AUDIO
TITLE "Did That Hurt?"
PERFORMER "Skitzo"
FLAGS DCP
INDEX 01 00:00:00
TRACK 02 AUDIO
TITLE "Angel's Blood"
PERFORMER "Skitzo"
FLAGS DCP
INDEX 01 03:58:49
TRACK 03 AUDIO
TITLE "Krystal Death's Horizon"
PERFORMER "Skitzo"
FLAGS DCP
INDEX 01 08:33:51
TRACK 04 AUDIO
TITLE "Frozen Dead"
PERFORMER "Skitzo"
FLAGS DCP
INDEX 01 14:11:69
TRACK 05 AUDIO
TITLE "Euthanize Tunnel Zone"
PERFORMER "Skitzo"
FLAGS DCP
INDEX 01 21:33:31
TRACK 06 AUDIO
TITLE "Satan's Grave"
PERFORMER "Skitzo"
FLAGS DCP
INDEX 01 22:57:71
TRACK 07 AUDIO
TITLE "Kill With A Vengeance (Live Bonus)"
PERFORMER "Skitzo"
FLAGS DCP
INDEX 01 27:27:09

"Log"
Exact Audio Copy V0.99 prebeta 5 from 4. May 2009

Отчёт EAC об извлечении, выполненном 5. марта 2013, 11:30

Skitzo / Hellavator Musick

Дисковод: TSSTcorpCDDVDW SH-S202N Adapter: 0 ID: 1

Режим чтения : Достоверность
Использование точного потока : Да
Отключение кэша аудио : Да
Использование указателей C2 : Нет

Коррекция смещения при чтении : 6
Способность читать области Lead-in и Lead-out : Нет
Заполнение пропущенных сэмплов тишиной : Да
Удаление блоков с тишиной в начале и конце : Нет
При вычислениях CRC использовались нулевые сэмплы : Да
Интерфейс : Встроенный Win32-интерфейс для Win NT/2000

Выходной формат : Пользовательский кодировщик
Выбранный битрейт : 768 kBit/s
Качество : Высокий
Добавление ID3-тэга : Нет
Утилита сжатия : C:\Program Files\Exact Audio Copy\FLAC\FLAC.EXE
Дополнительные параметры : -6 -V -T "ARTIST=%a" -T "TITLE=%t" -T "ALBUM=%g" -T "DATE=%y" -T "TRACKNUMBER=%n" -T "GENRE=%m" -T "COMMENT=%e" %s -o %d


TOC извлечённого CD

Трек | Старт | Длительность | Начальный сектор | Конечный сектор
---------------------------------------------------------------------
1 | 0:00.00 | 3:58.49 | 0 | 17898
2 | 3:58.49 | 4:35.02 | 17899 | 38525
3 | 8:33.51 | 5:38.18 | 38526 | 63893
4 | 14:11.69 | 7:21.37 | 63894 | 97005
5 | 21:33.31 | 1:24.40 | 97006 | 103345
6 | 22:57.71 | 4:29.13 | 103346 | 123533
7 | 27:27.09 | 3:50.08 | 123534 | 140791


Характеристики диапазона извлечения и сообщения об ошибках

Выбранный диапазон

Имя файла E:\Лоси\S\Skitzo - Hellavator Musick.wav

Пиковый уровень 99.4 %
Качество диапазона 100.0 %
CRC копии 08197583
Копирование... OK

Ошибок не произошло


AccurateRip: сводка

Трек 1 нет в базе данных
Трек 2 нет в базе данных
Трек 3 нет в базе данных
Трек 4 нет в базе данных
Трек 5 нет в базе данных
Трек 6 нет в базе данных
Трек 7 нет в базе данных

Ни одного трека нет в базе AccurateRip

Конец отчёта


Hellavator Musick


Top
 Profile  
 
 
PostPosted: 20 Apr 2013 
Хиппей (support team)
User avatar
Joined: 30 Jul 2007
Posts: 108205
Lоcаtion: Киев (Kyiv, UA)
Age: 45
Name: Andrey
:thanx:

mirror: F-Bit l Narod

_________________


Top
 Profile E-mail  
 
 
PostPosted: 20 Apr 2013 
ТрэшЭрос
User avatar
Joined: 18 Jul 2011
Posts: 2300
Lоcаtion: Гулькевичи
Age: 43
Name: Александр
:thanx: канешн! Но шото я етих америкосов недослышал... Шо за тхресх они издают? Списифисный какойта :umnik:

_________________
Thrash no trash!!!


Top
 Profile E-mail  
 
 
PostPosted: 20 Apr 2013 
Генеральный thrasher
User avatar
Joined: 03 Oct 2008
Posts: 3507
Lоcаtion: Ханты-Мансийский АО
Age: 43
Name: Сергей
:thanx: канешн! Но шото я етих америкосов недослышал... Шо за тхресх они издают? Списифисный какойта :umnik:


Ну Сань!Каждому своё...Мне они нравятся. :shok:


Top
 Profile  
 
 
PostPosted: 20 Apr 2013 
дядя Миша
User avatar
Joined: 17 Oct 2008
Posts: 3073
Lоcаtion: USSR
Age: 56
Name: Khy
Спасибо,Серый.


Top
 Profile  
 
 
PostPosted: 21 Apr 2013 
Работнечег
User avatar
Joined: 28 Aug 2007
Posts: 5534
Lоcаtion: г. Москва
Age: 29
Name: Дима
Спасибо, Серег!


Top
 Profile E-mail  
 
 
PostPosted: 03 May 2013 
Доктор энтомологии
User avatar
Joined: 22 Jan 2009
Posts: 9449
Lоcаtion: Даугавпилс
Age: 43
Name: Алексей
:thanx:
А еще где-то читал, что их ведущий вокалист мастер фигурного сблёва, вроде как болезни что ли такой или просто разработал рыгалку :fingal:
ImageImage


Top
 Profile  
 
 
PostPosted: 12 May 2013 
Работнечег
User avatar
Joined: 28 Aug 2007
Posts: 5534
Lоcаtion: г. Москва
Age: 29
Name: Дима
Вполне возможно, по крайней мере судя по картинкам к альбомам))


Top
 Profile E-mail  
 
 
PostPosted: 04 Jul 2013 
Хиппей (support team)
User avatar
Joined: 30 Jul 2007
Posts: 108205
Lоcаtion: Киев (Kyiv, UA)
Age: 45
Name: Andrey
Гломурненько :dance:

_________________


Top
 Profile E-mail  
 
Display posts from previous:  Sort by  
Post new topic Reply to topic  [ 9 posts ] 

All times are UTC + 3 hours


Who is online

Users browsing this forum: No registered users and 5 guests


You cannot post new topics in this forum
You cannot reply to topics in this forum
You cannot edit your posts in this forum
You cannot delete your posts in this forum
You cannot post attachments in this forum

Search for:
Яндекс.Метрика
Powered by phpBB © 2000, 2002, 2005, 2007 phpBB Group