\m/ 80's metal \m/

Информационно-аналитический форум "80 см пыли" (In Search We Trust) "У нас никто никуда не спешит"
Железнодорожная биржа - RailAgent
It is currently 23 Jul 2018

All times are UTC + 3 hours

Spoiler
Chat - temporary registration for foreign users (please leave your application here)







Post new topic Reply to topic  [ 100 posts ]  Go to page Previous  1, 2, 3, 4, 5  Next
Author Message
 
PostPosted: 21 Apr 2013 
Хиппей (support team)
User avatar
Joined: 30 Jul 2007
Posts: 105211
Lоcаtion: Киев (Kyiv, UA)
Age: 45
Name: Andrey
http://rutracker.org/forum/viewtopic.php?t=1790147

1 В этой раздаче похоже все пираты. Нет обишки, не у одного из 4 дисков.
2 Очень свеженько выглядят буклетики.
3.Время появления раздачи на трекере, совпадает со временем появления российских пираток в продаже.

P.s. У всех мне известных коллекционеров первых двух Steeler на Японии нет, и никто из них их никогда не видел.
Давайте искать вместе, хотя бы сканы японцев.

P.s У меня на фирме CD - два немца ...86и88.

Миш, спасибо за "расфасовку" изданий.
А есть мысля, с чего пиратки 85 и 86 годов слеплены? С "немцев" этих же?
Кстати, мне как и Лёне, звук на 85-м пирате понравился :dance: Дефектов не обнаружил никаких :vic:

Качаю ЭсПиВишник. Спасибо! :true:

_________________


Top
 Profile E-mail  
 
 
PostPosted: 21 Apr 2013 
5-speed satisfactor
User avatar
Joined: 16 Feb 2009
Posts: 3527
Lоcаtion: New York, USA
Age: 40
Name: Leonid
:thanx:

_________________
Death rules! Metal to all who oppose!


Top
 Profile  
 
 
PostPosted: 21 Apr 2013 
Хиппей (support team)
User avatar
Joined: 30 Jul 2007
Posts: 105211
Lоcаtion: Киев (Kyiv, UA)
Age: 45
Name: Andrey
Лёнь, сможешь попозже отписаться по качеству звука - отличается ли он на пиратке и от того, что рипнул дядь Миша? :oops:
Здается мне, что в звуке то раз всё едино, как пел известный персонаж :pardon:

_________________


Top
 Profile E-mail  
 
 
PostPosted: 21 Apr 2013 
Хиппей (support team)
User avatar
Joined: 30 Jul 2007
Posts: 105211
Lоcаtion: Киев (Kyiv, UA)
Age: 45
Name: Andrey
http://rutracker.org/forum/viewtopic.php?t=4417935

86 пошёл, второй позже.

:thanx:
mirror: F-Bit l Narod

log
Exact Audio Copy V0.99 prebeta 5 from 4. May 2009

EAC extraction logfile from 21. April 2013, 12:48

Steeler / Strike Back

Used drive : Optiarc DVD RW AD-7243S Adapter: 1 ID: 0

Read mode : Secure
Utilize accurate stream : Yes
Defeat audio cache : Yes
Make use of C2 pointers : No

Read offset correction : 48
Overread into Lead-In and Lead-Out : No
Fill up missing offset samples with silence : Yes
Delete leading and trailing silent blocks : No
Null samples used in CRC calculations : Yes
Used interface : Installed external ASPI interface

Used output format : Internal WAV Routines
Sample format : 44.100 Hz; 16 Bit; Stereo


TOC of the extracted CD

Track | Start | Length | Start sector | End sector
---------------------------------------------------------
1 | 0:00.00 | 3:54.50 | 0 | 17599
2 | 3:54.50 | 4:49.43 | 17600 | 39317
3 | 8:44.18 | 3:31.00 | 39318 | 55142
4 | 12:15.18 | 4:15.62 | 55143 | 74329
5 | 16:31.05 | 4:04.68 | 74330 | 92697
6 | 20:35.73 | 4:02.70 | 92698 | 110917
7 | 24:38.68 | 3:46.67 | 110918 | 127934
8 | 28:25.60 | 5:05.38 | 127935 | 150847
9 | 33:31.23 | 4:38.55 | 150848 | 171752


Range status and errors

Selected range

Filename E:\Релизы мои\Steeler[1986]Strike back(SPV85-1861)\Steeler - Strike Back.wav

Peak level 86.6 %
Range quality 100.0 %
Copy CRC 58FBD7A9
Copy OK

No errors occurred


AccurateRip summary

Track 1 accurately ripped (confidence 4) [4A26A878]
Track 2 accurately ripped (confidence 4) [8AB267BB]
Track 3 accurately ripped (confidence 4) [000D7736]
Track 4 accurately ripped (confidence 4) [970EB1FB]
Track 5 accurately ripped (confidence 4) [B29C99EE]
Track 6 accurately ripped (confidence 4) [E9E8C153]
Track 7 accurately ripped (confidence 4) [98C916F8]
Track 8 accurately ripped (confidence 4) [85107242]
Track 9 accurately ripped (confidence 4) [C1CE4CA1]

All tracks accurately ripped

End of status report

cue
REM GENRE Metal
REM DATE 1986
REM DISCID 6F08F209
REM COMMENT "ExactAudioCopy v0.99pb5"
PERFORMER "Steeler"
TITLE "Strike Back"
FILE "Steeler - Strike Back.ape" WAVE
TRACK 01 AUDIO
TITLE "Rockin The City"
PERFORMER "Steeler"
INDEX 01 00:00:00
TRACK 02 AUDIO
TITLE "Money Doesn't Count"
PERFORMER "Steeler"
INDEX 00 03:52:23
INDEX 01 03:54:50
TRACK 03 AUDIO
TITLE "Chain Gang"
PERFORMER "Steeler"
INDEX 00 08:42:10
INDEX 01 08:44:18
TRACK 04 AUDIO
TITLE "Messin Around"
PERFORMER "Steeler"
INDEX 00 12:12:45
INDEX 01 12:15:18
TRACK 05 AUDIO
TITLE "Ice Cold"
PERFORMER "Steeler"
INDEX 00 16:28:35
INDEX 01 16:31:05
TRACK 06 AUDIO
TITLE "Strike Back"
PERFORMER "Steeler"
INDEX 00 20:33:10
INDEX 01 20:35:73
TRACK 07 AUDIO
TITLE "Danger Come Back"
PERFORMER "Steeler"
INDEX 00 24:36:38
INDEX 01 24:38:68
TRACK 08 AUDIO
TITLE "Night After Night"
PERFORMER "Steeler"
INDEX 00 28:22:58
INDEX 01 28:25:60
TRACK 09 AUDIO
TITLE "Waiting For A Star"
PERFORMER "Steeler"
INDEX 00 33:28:20
INDEX 01 33:31:23

ImageImageImageImageImage

_________________


Top
 Profile E-mail  
 
 
PostPosted: 21 Apr 2013 
Хиппей (support team)
User avatar
Joined: 30 Jul 2007
Posts: 105211
Lоcаtion: Киев (Kyiv, UA)
Age: 45
Name: Andrey
Позже топики разделю, а то снова в годах и альбомах могём запутаца :fingal:

_________________


Top
 Profile E-mail  
 
 
PostPosted: 21 Apr 2013 
Хиппей (support team)
User avatar
Joined: 30 Jul 2007
Posts: 105211
Lоcаtion: Киев (Kyiv, UA)
Age: 45
Name: Andrey
А, тьху, просто добавлю в название топика имена альбомов :dance:

_________________


Top
 Profile E-mail  
 
 
PostPosted: 21 Apr 2013 
Хиппей (support team)
User avatar
Joined: 30 Jul 2007
Posts: 105211
Lоcаtion: Киев (Kyiv, UA)
Age: 45
Name: Andrey
аськоцитирование, пригодиццо
Quote:
> 31.03.2013 06:18:42, Scatterbrain©
> viewtopic.php?f=68&t=10463
> 31.03.2013 06:19:43, terrion
> стилер во-первых, оцифрован с винила, и это
> слышно... во-вторых, там пипец какая
> компрессия... в оригинале диапазон 10-11 едениц,
> а там 6-7 вроде... короче, винилорип на ммт с
> бутлега пока был лучшим
> 31.03.2013 06:20:40, terrion
> просто на форуме нечасто бываю
> 31.03.2013 06:20:51, Scatterbrain©
> так. а ты точно не российский бутлег слушал, криво
> риинутый с винила в середине 90-х?
> 31.03.2013 06:22:53, terrion
> я слушал рип, который релизил на ммт рокберто
> http://www.metalmadness.org/phpBB2/view ... hp?t=21124
> 31.03.2013 06:24:06, terrion
> какой-то бутлег релизили на форуме, где 2 в 1
> (первые два) - вот он более-менее звучал.... рип
> ревиси был запорот в самом начале - не хватало
> секунды три чёса на гитаре... я ему писал, но он
> не понял нихрена и потом забил на мои доводы и не
> ответил ничего
> 31.03.2013 06:24:22, terrion
> гг )

_________________


Top
 Profile E-mail  
 
 
PostPosted: 21 Apr 2013 
Хиппей (support team)
User avatar
Joined: 30 Jul 2007
Posts: 105211
Lоcаtion: Киев (Kyiv, UA)
Age: 45
Name: Andrey
Quote:
21.04.2013 22:58:26, terrion
андрюх, вот стимхаммеровский первопресс последнего альбома стилера, с фирмы, проверял лично

http://metrock.ru/news/steeler_undercov ... -11-28-625

запости на форум, пусть распространяется
21.04.2013 22:58:42, terrion
ссыль была жива до недавних пор

Ща перезалью... :pardon:

_________________


Top
 Profile E-mail  
 
 
PostPosted: 21 Apr 2013 
Хиппей (support team)
User avatar
Joined: 30 Jul 2007
Posts: 105211
Lоcаtion: Киев (Kyiv, UA)
Age: 45
Name: Andrey
Quote:
> 21.04.2013 23:04:21, terrion
> давай я тебе заново напишу понятнее
> 21.04.2013 23:04:37, Scatterbrain©
> а
> ну там итак понятно
> 21.04.2013 23:04:53, Scatterbrain©
> давай ты на фоуме напишешь? или парольку забыл
> тож?
> 21.04.2013 23:05:23, terrion
> первый стилер
> самый нормальный - рип 2 в 1 на ммт
> тоже нормальный - от ревичи, если бы не косяк с
> обрезанным началом
> второй стилер
> самый нормальный - от ревичи
> но и на 2 в 1 неплохой
> 21.04.2013 23:05:44, terrion
> да не, не забыл, просто надо вчитываться сидеть,
> ща малость не до того )
> 21.04.2013 23:06:01, Scatterbrain©
> ога понял, пасибке
> 21.04.2013 23:06:23, terrion
> ога

_________________


Top
 Profile E-mail  
 
 
PostPosted: 21 Apr 2013 
Хиппей (support team)
User avatar
Joined: 30 Jul 2007
Posts: 105211
Lоcаtion: Киев (Kyiv, UA)
Age: 45
Name: Andrey
Steeler - 1988 - Undercover Animal [flac]

ImageImage
ImageImage

mirror: F-Bit l Narod

log
Exact Audio Copy V0.99 prebeta 5 from 4. May 2009

EAC extraction logfile from 21. October 2009, 14:32

Steeler / Undercover Animal

Used drive : HL-DT-STDVD-ROM DH16NS10 Adapter: 3 ID: 0

Read mode : Secure
Utilize accurate stream : Yes
Defeat audio cache : Yes
Make use of C2 pointers : No

Read offset correction : 102
Overread into Lead-In and Lead-Out : No
Fill up missing offset samples with silence : Yes
Delete leading and trailing silent blocks : No
Null samples used in CRC calculations : Yes
Used interface : Native Win32 interface for Win NT & 2000

Used output format : Internal WAV Routines
Sample format : 44.100 Hz; 16 Bit; Stereo


TOC of the extracted CD

Track | Start | Length | Start sector | End sector
---------------------------------------------------------
1 | 0:00.00 | 3:40.00 | 0 | 16499
2 | 3:40.00 | 4:50.25 | 16500 | 38274
3 | 8:30.25 | 4:23.12 | 38275 | 58011
4 | 12:53.37 | 3:49.38 | 58012 | 75224
5 | 16:43.00 | 3:56.25 | 75225 | 92949
6 | 20:39.25 | 4:17.02 | 92950 | 112226
7 | 24:56.27 | 3:28.28 | 112227 | 127854
8 | 28:24.55 | 5:10.32 | 127855 | 151136
9 | 33:35.12 | 3:15.00 | 151137 | 165761
10 | 36:50.12 | 2:36.13 | 165762 | 177474


Range status and errors

Selected range

Filename X:\Releases RAW\Steeler - Undercover Animal\Steeler - Undercover Animal.wav

Peak level 51.9 %
Range quality 100.0 %
Test CRC 5D2D095A
Copy CRC 5D2D095A
Copy OK

No errors occurred


AccurateRip summary

Track 1 not present in database
Track 2 not present in database
Track 3 not present in database
Track 4 not present in database
Track 5 not present in database
Track 6 not present in database
Track 7 not present in database
Track 8 not present in database
Track 9 not present in database
Track 10 not present in database

None of the tracks are present in the AccurateRip database

End of status report

cue
REM GENRE "Heavy Metal"
REM DATE 1988
REM DISCID 66093E0A
REM COMMENT "ExactAudioCopy v0.99pb5"
REM ACCURATERIPID 000f7e7a-007b7a2e-66093e0a
CATALOG 0000000000000
PERFORMER "Steeler"
TITLE "Undercover Animal"
FILE "Steeler - Undercover Animal.flac" WAVE
TRACK 01 AUDIO
TITLE "(I'll Be) Hunter Or Hunted"
PERFORMER "Steeler"
INDEX 01 00:00:00
TRACK 02 AUDIO
TITLE "Undercover Animal"
PERFORMER "Steeler"
INDEX 00 03:39:00
INDEX 01 03:40:00
TRACK 03 AUDIO
TITLE "Shadow In The Redlight"
PERFORMER "Steeler"
INDEX 00 08:30:20
INDEX 01 08:30:25
TRACK 04 AUDIO
TITLE "Hard Breaks"
PERFORMER "Steeler"
INDEX 00 12:53:35
INDEX 01 12:53:37
TRACK 05 AUDIO
TITLE "Criminal"
PERFORMER "Steeler"
INDEX 00 16:42:50
INDEX 01 16:43:00
TRACK 06 AUDIO
TITLE "Rely On Rock"
PERFORMER "Steeler"
INDEX 00 20:39:00
INDEX 01 20:39:25
TRACK 07 AUDIO
TITLE "Stand Tall"
PERFORMER "Steeler"
INDEX 00 24:56:25
INDEX 01 24:56:27
TRACK 08 AUDIO
TITLE "The Deeper The Night"
PERFORMER "Steeler"
INDEX 00 28:24:52
INDEX 01 28:24:55
TRACK 09 AUDIO
TITLE "Knock Me Out"
PERFORMER "Steeler"
INDEX 00 33:35:10
INDEX 01 33:35:12
TRACK 10 AUDIO
TITLE "Bad To The Bone"
PERFORMER "Steeler"
INDEX 00 36:50:07
INDEX 01 36:50:12

_________________


Top
 Profile E-mail  
 
 
PostPosted: 22 Apr 2013 
Metal Collector
User avatar
Joined: 16 Nov 2008
Posts: 1217
Lоcаtion: Химки
Age: 35
Name: Андрей
Увековечили наконец :)


Top
 Profile E-mail  
 
 
PostPosted: 22 Apr 2013 
Хиппей (support team)
User avatar
Joined: 30 Jul 2007
Posts: 105211
Lоcаtion: Киев (Kyiv, UA)
Age: 45
Name: Andrey
Ога, тебе ж всё некогда :dash: :crazy: :cry: :pardon:

_________________


Top
 Profile E-mail  
 
 
PostPosted: 22 Apr 2013 
Metal Collector
User avatar
Joined: 16 Nov 2008
Posts: 1217
Lоcаtion: Химки
Age: 35
Name: Андрей
Тем не менее на любимый форум я регулярно захожу :) Просто не всегда меня на всё хватает :)


Top
 Profile E-mail  
 
 
PostPosted: 23 Apr 2013 
5-speed satisfactor
User avatar
Joined: 16 Feb 2009
Posts: 3527
Lоcаtion: New York, USA
Age: 40
Name: Leonid
Лёнь, сможешь попозже отписаться по качеству звука - отличается ли он на пиратке и от того, что рипнул дядь Миша? :oops:
Здается мне, что в звуке то раз всё едино, как пел известный персонаж :pardon:


Не знаю, когда руки вернее ухи дойдут. Я скоро Digger - Stronger Than Ever и Living Death - Metal Revolution выложу. Потом мне надо будет рипнуть и сканировать 30 CD до конца мая (продаю их). Так что токо в конце мая. Но первый я уже скачал с рутрекера, за шо дяде Мише :thanx:

_________________
Death rules! Metal to all who oppose!


Top
 Profile  
 
 
PostPosted: 14 Jun 2013 
5-speed satisfactor
User avatar
Joined: 16 Feb 2009
Posts: 3527
Lоcаtion: New York, USA
Age: 40
Name: Leonid
Я сравнил звук дяди Мишиного с япохой. Цифра разная, но звук похож. Обычное отличие япошек от европейский. Япошка всегда трохи погромче. Так же и здесь. Я предпочитаю всегда европейское издание.

Дядя Миш. Ну а второй то хоть выложишь? Долго ждем...

_________________
Death rules! Metal to all who oppose!


Top
 Profile  
 
 
PostPosted: 14 Jun 2013 
дядя Миша
User avatar
Joined: 17 Oct 2008
Posts: 3035
Lоcаtion: USSR
Age: 55
Name: Khy
Так Андрюха выложил выше, Я и делать не стал.


Top
 Profile  
 
 
PostPosted: 14 Jun 2013 
5-speed satisfactor
User avatar
Joined: 16 Feb 2009
Posts: 3527
Lоcаtion: New York, USA
Age: 40
Name: Leonid
A eсть первые 2 на SPV?

_________________
Death rules! Metal to all who oppose!


Top
 Profile  
 
 
PostPosted: 14 Jun 2013 
Рарник и трушник
User avatar
Joined: 25 Dec 2009
Posts: 7859
Lоcаtion: Москва
Age: 52
Name: Виталий
metaleonid wrote:
A eсть первые 2 на SPV?


Откуда им там взятся-то, ежель один в ориге на Мавзолее был, другой на Earthshaker. Пиратка-самопал тока, и Мавзолеюм-классикс.


Top
 Profile  
 
 
PostPosted: 15 Jun 2013 
5-speed satisfactor
User avatar
Joined: 16 Feb 2009
Posts: 3527
Lоcаtion: New York, USA
Age: 40
Name: Leonid
metaleonid wrote:
A eсть первые 2 на SPV?


Откуда им там взятся-то, ежель один в ориге на Мавзолее был, другой на Earthshaker. Пиратка-самопал тока, и Мавзолеюм-классикс.


Самый 1ый CD на Мавзолее. A официального второго не существует, так? И те самые япошки с рутрекера - это все самопал?

Есть хоть у кого мавзолейский?

_________________
Death rules! Metal to all who oppose!


Top
 Profile  
 
 
PostPosted: 16 Jun 2013 
Рарник и трушник
User avatar
Joined: 25 Dec 2009
Posts: 7859
Lоcаtion: Москва
Age: 52
Name: Виталий
metaleonid wrote:
Самый 1ый CD на Мавзолее. A официального второго не существует, так? И те самые япошки с рутрекера - это все самопал?

Есть хоть у кого мавзолейский?

Именно так, самопал. :pardon:
Да, у меня есть Mausoleum Classics. Не отличается особой красотой звука, тот же очищенный винил, даже хуже, чем у пиратов. :pardon:


Top
 Profile  
 
Display posts from previous:  Sort by  
Post new topic Reply to topic  [ 100 posts ]  Go to page Previous  1, 2, 3, 4, 5  Next

All times are UTC + 3 hours


Who is online

Users browsing this forum: No registered users and 2 guests


You cannot post new topics in this forum
You cannot reply to topics in this forum
You cannot edit your posts in this forum
You cannot delete your posts in this forum
You cannot post attachments in this forum

Search for:
Яндекс.Метрика
Powered by phpBB © 2000, 2002, 2005, 2007 phpBB Group