\m/ 80's metal \m/

Информационно-аналитический форум "80 см пыли" (In Search We Trust) "У нас никто никуда не спешит"
Me For You - http://me-4u.com
It is currently 25 Sep 2018

All times are UTC + 3 hours

Spoiler
Chat - temporary registration for foreign users (please leave your application here)







Post new topic Reply to topic  [ 8 posts ] 
Author Message
 
PostPosted: 23 Nov 2012 
А может смените мне статус?..
User avatar
Joined: 24 Sep 2012
Posts: 856
Lоcаtion: Нижегородская обл.
Age: 48
Name: Вячеслав
Image

Исполнитель: Six Point Six
Альбом: Fallen Angel
Страна: Germany ( Bietigheim-Bissingen, Baden-Württemberg)
Год издания: 1990
Страна производителя диска: Germany
Издатель (лейбл) / Номер по каталогу: Aurophon / AU 31712
Жанр: Traditional Heavy Metal
Формат Аудио: FLAC (Cue/Log/Image)+ All Scans
Продолжительность Звучания Альбома: 00:39:14
Размер Архива: 287 Mb (+ 3% recovery)
Источник (релизер): slayer19

Треклист:

01. City 4:11
02. Lies 3:53
03. Long Way From Home 2:42
04. I'm In Love 4:31
05. Starfighter 3:57
06. Fade Away 4:31
07. Fallen Angel 4:31
08. All Alone 3:46
09. Satan's Seed 3:33
10. Killer 3:41

"Лог создания рипа"
Exact Audio Copy V1.0 beta 3 from 29. August 2011

Отчёт EAC об извлечении, выполненном 21. ноября 2012, 10:19

Six Point Six / Fallen Angel

Дисковод: Optiarc DVD RW AD-7200A Adapter: 0 ID: 0

Режим чтения : Достоверность
Использование точного потока : Да
Отключение кэша аудио : Да
Использование указателей C2 : Нет

Коррекция смещения при чтении : 48
Способность читать области Lead-in и Lead-out : Нет
Заполнение пропущенных сэмплов тишиной : Да
Удаление блоков с тишиной в начале и конце : Нет
При вычислениях CRC использовались нулевые сэмплы : Да
Интерфейс : Встроенный Win32-интерфейс для Win NT/2000

Выходной формат : Пользовательский кодировщик
Выбранный битрейт : 128 kBit/s
Качество : Высокий
Добавление ID3-тега : Нет
Утилита сжатия : C:\Program Files\FLAC\FLAC frontend.exe

TOC извлечённого CD

Трек | Старт | Длительность | Начальный сектор | Конечный сектор
---------------------------------------------------------------------
1 | 0:00.33 | 4:10.55 | 33 | 18837
2 | 4:11.13 | 3:53.02 | 18838 | 36314
3 | 8:04.15 | 2:41.48 | 36315 | 48437
4 | 10:45.63 | 4:30.70 | 48438 | 68757
5 | 15:16.58 | 3:56.50 | 68758 | 86507
6 | 19:13.33 | 4:30.42 | 86508 | 106799
7 | 23:44.00 | 4:30.58 | 106800 | 127107
8 | 28:14.58 | 3:45.62 | 127108 | 144044
9 | 32:00.45 | 3:32.48 | 144045 | 159992
10 | 35:33.18 | 3:40.70 | 159993 | 176562

Характеристики диапазона извлечения и сообщения об ошибках

Выбранный диапазон

Имя файла D:\МОИ ФАЙЛЫ\LOSSLESS\slayer19\Six Point Six - Fallen Angel.wav

Пиковый уровень 85.3 %
Скорость извлечения 3.5 X
Качество диапазона 100.0 %
CRC теста 99BD41C0
CRC копии 99BD41C0
Копирование... OK

Ошибок не произошло

AccurateRip: сводка

Трек 1 отсутствует в базе данных
Трек 2 отсутствует в базе данных
Трек 3 отсутствует в базе данных
Трек 4 отсутствует в базе данных
Трек 5 отсутствует в базе данных
Трек 6 отсутствует в базе данных
Трек 7 отсутствует в базе данных
Трек 8 отсутствует в базе данных
Трек 9 отсутствует в базе данных
Трек 10 отсутствует в базе данных

Ни одного трека нет в базе AccurateRip

Конец отчёта

---- CUETools DB Plugin V2.1.3

[CTDB TOCID: 9RVLxl6TRl3jSRPZdmpOHnwt2bk-] disk not present in database, Submit result: discs with pregaps not supported in this protocol version

==== Контрольная сумма отчёта 1852DAF301B32BF3F897B08BD68F5246C05B5FC4643859E5990CC8AADDA8A272 ====

"Фото"
Image


Cкачать: Six Point Six - Fallen Angel 1984 (Reissued 1990) by slayer19.rar

_________________
Image


Top
 Profile E-mail  
 
 
PostPosted: 23 Nov 2012 
Доктор энтомологии
User avatar
Joined: 22 Jan 2009
Posts: 9333
Lоcаtion: Даугавпилс
Age: 43
Name: Алексей
:thanx: :true:


Top
 Profile  
 
 
PostPosted: 23 Nov 2012 
Хиппей (support team)
User avatar
Joined: 30 Jul 2007
Posts: 106555
Lоcаtion: Киев (Kyiv, UA)
Age: 45
Name: Andrey
:thanx:

mirror: Narod

Кажись это уже третий рип этого альбома. Не издания, а альбома... :umnik:

_________________


Top
 Profile E-mail  
 
 
PostPosted: 23 Nov 2012 
А может смените мне статус?..
User avatar
Joined: 25 Mar 2009
Posts: 580
Lоcаtion: Нижний Новгород
Age: 48
Name: Владимир
:thanx: :drink:


Top
 Profile  
 
 
PostPosted: 23 Nov 2012 
Генеральный thrasher
User avatar
Joined: 03 Oct 2008
Posts: 3451
Lоcаtion: Ханты-Мансийский АО
Age: 43
Name: Сергей
Группа одного альбома.Качал рип от revici помнится...


Top
 Profile  
 
 
PostPosted: 23 Nov 2012 
А может смените мне статус?..
User avatar
Joined: 24 Sep 2012
Posts: 856
Lоcаtion: Нижегородская обл.
Age: 48
Name: Вячеслав
Всем пожалуйста! :true:

_________________
Image


Top
 Profile E-mail  
 
 
PostPosted: 03 Oct 2013 
Персональный статус
User avatar
Joined: 11 May 2011
Posts: 416
Lоcаtion: Omsk
Age: 28
Name: Alexander
Хороший альбом, спасибо! :true:

_________________
Enigma, unholy, ungodly, commander of the regeneration
Insidious and caught, implored by disgrace
Inhumation... The burial of man
Confession... Unify all evil


Top
 Profile E-mail  
 
 
PostPosted: 05 Oct 2013 
\m/ 80 см сала \m/
User avatar
Joined: 12 Mar 2012
Posts: 2588
Age: 25
Name: Nick
Спасибо, послушаю :thanx:

_________________
1990 AUROPHON BRAINSTORM (Germany) - lossless
1994 MAUSOLEUM CLASSIX (Belgium-Germany) - lossless
1998 VA - GRIM HARVEST - Complete Metal Massacre Volumes I-XII


Top
 Profile  
 
Display posts from previous:  Sort by  
Post new topic Reply to topic  [ 8 posts ] 

All times are UTC + 3 hours


Who is online

Users browsing this forum: No registered users and 1 guest


You cannot post new topics in this forum
You cannot reply to topics in this forum
You cannot edit your posts in this forum
You cannot delete your posts in this forum
You cannot post attachments in this forum

Search for:
Яндекс.Метрика
Powered by phpBB © 2000, 2002, 2005, 2007 phpBB Group