\m/ 80's metal \m/

Информационно-аналитический форум "80 см пыли" (In Search We Trust) "У нас никто никуда не спешит"
Железнодорожная биржа - RailAgent
It is currently 22 Jul 2018

All times are UTC + 3 hours

Spoiler
Chat - temporary registration for foreign users (please leave your application here)







Post new topic Reply to topic  [ 74 posts ]  Go to page Previous  1, 2, 3, 4  Next
Author Message
 
PostPosted: 27 Dec 2016 
Генеральный thrasher
User avatar
Joined: 03 Oct 2008
Posts: 3408
Lоcаtion: Ханты-Мансийский АО
Age: 43
Name: Сергей
Есть оцифровка с бобины от этого года.Правда не как Escape From Mind,а как SHAH - 88 MADNESS.Все трэки распознаются как CDDA.


Top
 Profile  
 
 
PostPosted: 27 Dec 2016 
Хиппей (support team)
User avatar
Joined: 30 Jul 2007
Posts: 105198
Lоcаtion: Киев (Kyiv, UA)
Age: 45
Name: Andrey
Scatterbrain wrote:
Слушаю уж полдня прусь, прусь и тащусь. Саунд очень нравится

Да, очень приличный саунд! :lob:

Знаешь а мне поначалу показалось, что слегка закомпрессированный. Но затем напялил наушники - лепотища :meloman:

Ща следующее переиздание слушаю. Скоро отпишу пару слов..

_________________


Top
 Profile E-mail  
 
 
PostPosted: 27 Dec 2016 
Хиппей (support team)
User avatar
Joined: 30 Jul 2007
Posts: 105198
Lоcаtion: Киев (Kyiv, UA)
Age: 45
Name: Andrey
Shah - 1989 - Beware (Germany & Japan reissue) [flac]

Image Image Image


Image Image Image Image

mirror: iFolder l Narod l M-Cloud

log
Exact Audio Copy V0.99 prebeta 5 from 4. May 2009

EAC extraction logfile from 26. November 2010, 20:16

Shah / Beware

Used drive : LITE-ON LTR-40125S Adapter: 1 ID: 1

Read mode : Secure
Utilize accurate stream : Yes
Defeat audio cache : Yes
Make use of C2 pointers : No

Read offset correction : 12
Overread into Lead-In and Lead-Out : No
Fill up missing offset samples with silence : Yes
Delete leading and trailing silent blocks : No
Null samples used in CRC calculations : Yes
Used interface : Installed external ASPI interface

Used output format : Internal WAV Routines
Sample format : 44.100 Hz; 16 Bit; Stereo


TOC of the extracted CD

Track | Start | Length | Start sector | End sector
---------------------------------------------------------
1 | 0:00.00 | 6:22.07 | 0 | 28656
2 | 6:22.07 | 5:40.63 | 28657 | 54219
3 | 12:02.70 | 6:24.00 | 54220 | 83019
4 | 18:26.70 | 5:23.25 | 83020 | 107269
5 | 23:50.20 | 5:22.72 | 107270 | 131491
6 | 29:13.17 | 6:00.48 | 131492 | 158539
7 | 35:13.65 | 7:28.40 | 158540 | 192179
8 | 42:42.30 | 0:26.17 | 192180 | 194146


Range status and errors

Selected range

Filename Z:\data\mp3\Seeding Archive\Shah\1989-Beware\Beware.wav

Peak level 89.7 %
Range quality 100.0 %
Test CRC 290AE058
Copy CRC 290AE058
Copy OK

No errors occurred


AccurateRip summary

Track 1 accurately ripped (confidence 2) [3CE1BCB7]
Track 2 accurately ripped (confidence 2) [0ECB8B33]
Track 3 accurately ripped (confidence 2) [2B683E4C]
Track 4 accurately ripped (confidence 2) [0738C8C3]
Track 5 accurately ripped (confidence 2) [CB9E1D9B]
Track 6 accurately ripped (confidence 2) [3F8891B0]
Track 7 accurately ripped (confidence 2) [4D1E237C]
Track 8 accurately ripped (confidence 2) [995EB50D]

All tracks accurately ripped

End of status report

cue
REM GENRE misc
REM DATE 1989
REM DISCID 5E0A1C08
REM COMMENT "ExactAudioCopy v0.99pb5"
CATALOG 0000000000000
PERFORMER "Shah"
TITLE "Beware"
FILE "Beware.flac" WAVE
TRACK 01 AUDIO
TITLE "Total Devastation"
PERFORMER "Shah"
INDEX 01 00:00:00
TRACK 02 AUDIO
TITLE "Beware"
PERFORMER "Shah"
INDEX 01 06:22:07
TRACK 03 AUDIO
TITLE "Coward"
PERFORMER "Shah"
INDEX 01 12:02:70
TRACK 04 AUDIO
TITLE "Bloodbrothers"
PERFORMER "Shah"
INDEX 01 18:26:70
TRACK 05 AUDIO
TITLE "Save The Human Race"
PERFORMER "Shah"
INDEX 01 23:50:20
TRACK 06 AUDIO
TITLE "Age Of Dismay"
PERFORMER "Shah"
INDEX 01 29:13:17
TRACK 07 AUDIO
TITLE "Threshold Of Pain"
PERFORMER "Shah"
INDEX 01 35:13:65
TRACK 08 AUDIO
TITLE "Say 'Hi' To Anthrax"
PERFORMER "Shah"
INDEX 01 42:42:30


Собственно, альбом тоже понравился.
Различия значительного между звуком на разных изданиях (переизданиях) не обнаружил через колонки слушая, а сам звучок весьма сероват и плосковат, к сожалению. В духе первых альбомов Металлики, Слеер, или Экзодус, например.
Кстати, вот как раз на Металлику этот релиз больше всего и... не, ну не то, чтобы похож, но какие-то очень даже уловимые нотки слышны и весьма заметны. Как в музыке, так и особенно в подаче некоторых вокальных фишек. В частности, вот это нежное выплёвывание концовок фраз в куплетах и припевах. Это чисто фишка молодого Хэта. У других она или попросту отсутствовала, или звучала жёстче, как вот у Арайи, например.

Shah - Threshold of Pain


Тем не менее, и этот альбом группы мне понравился. Оценю где-то в 6-7 баллов из 10, но вносить в личные топы пока не буду. Ра-но-вато.
Как понятно из написанного, ранее я эту группу почти не слушал, только альбом 91 года который в том же 91-м году мне вообще показался никаким и УГ. Полагаю, сёдня-завтра я до него снова доберусь и уже с новыми, причёсанными мозгами...

ps. Потыкал только что для сравнения в одну и ту же песенку (в плеере на компе) на двух изданиях - звучат одинаково бочкоподобно :pardon:

Image Image Image Image


Image Image Image Image

Image Image Image Image

log
Exact Audio Copy V1.0 beta 1 from 15. November 2010

EAC extraction logfile from 31. May 2011, 17:46

Shah / Beware (Japan)

Used drive : PLEXTOR DVDR PX-760A Adapter: 1 ID: 1

Read mode : Secure
Utilize accurate stream : Yes
Defeat audio cache : Yes
Make use of C2 pointers : No

Read offset correction : 30
Overread into Lead-In and Lead-Out : No
Fill up missing offset samples with silence : Yes
Delete leading and trailing silent blocks : No
Null samples used in CRC calculations : Yes
Used interface : Installed external ASPI interface

Used output format : Internal WAV Routines
Sample format : 44.100 Hz; 16 Bit; Stereo


TOC of the extracted CD

Track | Start | Length | Start sector | End sector
---------------------------------------------------------
1 | 0:00.00 | 6:22.30 | 0 | 28679
2 | 6:22.30 | 5:41.30 | 28680 | 54284
3 | 12:03.60 | 6:23.33 | 54285 | 83042
4 | 18:27.18 | 5:23.25 | 83043 | 107292
5 | 23:50.43 | 5:23.02 | 107293 | 131519
6 | 29:13.45 | 6:00.53 | 131520 | 158572
7 | 35:14.23 | 7:28.40 | 158573 | 192212
8 | 42:42.63 | 0:26.50 | 192213 | 194212


Range status and errors

Selected range

Filename Z:\data\mp3\Seeding Archive\Shah\1989-Beware [1990 Japan]\Beware (Japan).wav

Peak level 98.5 %
Extraction speed 0.0 X
Range quality 100.0 %
Test CRC AADACABB
Copy CRC AADACABB
Copy OK

No errors occurred


AccurateRip summary

Track 1 not present in database
Track 2 not present in database
Track 3 not present in database
Track 4 not present in database
Track 5 not present in database
Track 6 not present in database
Track 7 not present in database
Track 8 not present in database

None of the tracks are present in the AccurateRip database

End of status report

cue
REM GENRE "Trash Metal"
REM DATE 1989
REM DISCID 610A1D08
REM COMMENT "ExactAudioCopy v1.0b1"
PERFORMER "Shah"
TITLE "Beware (Japan)"
FILE "Beware (Japan).flac" WAVE
TRACK 01 AUDIO
TITLE "Total Devastation"
PERFORMER "Shah"
INDEX 01 00:00:00
TRACK 02 AUDIO
TITLE "Beware"
PERFORMER "Shah"
INDEX 00 06:20:23
INDEX 01 06:22:30
TRACK 03 AUDIO
TITLE "Coward"
PERFORMER "Shah"
INDEX 00 12:01:50
INDEX 01 12:03:60
TRACK 04 AUDIO
TITLE "Bloodbrothers"
PERFORMER "Shah"
INDEX 00 18:24:63
INDEX 01 18:27:18
TRACK 05 AUDIO
TITLE "Save The Human Race"
PERFORMER "Shah"
INDEX 00 23:49:63
INDEX 01 23:50:43
TRACK 06 AUDIO
TITLE "Age Of Dismay"
PERFORMER "Shah"
INDEX 00 29:11:28
INDEX 01 29:13:45
TRACK 07 AUDIO
TITLE "Threshold Of Pain"
PERFORMER "Shah"
INDEX 00 35:11:20
INDEX 01 35:14:23
TRACK 08 AUDIO
TITLE "Say 'Hi' To Anthrax"
PERFORMER "Shah"
INDEX 00 42:41:03
INDEX 01 42:42:63

_________________


Top
 Profile E-mail  
 
 
PostPosted: 27 Dec 2016 
Хиппей (support team)
User avatar
Joined: 30 Jul 2007
Posts: 105198
Lоcаtion: Киев (Kyiv, UA)
Age: 45
Name: Andrey
Scatterbrain wrote:
Shah - 1989 - Beware

Всё же окончательная оценка 8/10 и в топы альбом :kro:

_________________


Top
 Profile E-mail  
 
 
PostPosted: 28 Dec 2016 
А может смените мне статус?..
User avatar
Joined: 17 Jan 2008
Posts: 845
Lоcаtion: Пенза
Age: 40
Name: Денис
Есть оцифровка с бобины от этого года.Правда не как Escape From Mind,а как SHAH - 88 MADNESS.Все трэки распознаются как CDDA.

Сергей,а можно это услышать?


Top
 Profile  
 
 
PostPosted: 28 Dec 2016 
А может смените мне статус?..
Joined: 16 Jan 2011
Posts: 579
Lоcаtion: Россия
Name: Александр
Отличная группа. Вот пример российской группы, не ищущей "самобытные" пути,
а играющей строгий, классический, настоящий трэш в духе Металлика, Креатор,
Ангел Даст и др. Всем огромное спасибо за ссылки, некоторые альбомы еще не слышал.

Вот какой вопрос. Был в 1987 году на концерте Шаха в Сокольниках вроде бы. Давно было, не помню точно. Но помню, что очень впечатлили тогда песни, как по музыке та и по названиям, что то вроде "Марш мертвецов", "Прощание с любовью", "Священная месть", а вот последняя песня помню точно "Металлическая схватка" (Metal Fight) Вот этот момент хорошо помню, как они скандировали припев и его
начал повторять весь зал а потом стали зажигать зажигалки и спички и милиция стала разгонять людей боясь пожара.

Так вот, кто нибудь был там или знает что это были за песни, и где их можно скачать или послушать? На тех альбомах что я слышал (Beware, Terror Collection) я таких не слышал. Заранее спасибо.


Top
 Profile E-mail  
 
 
PostPosted: 28 Dec 2016 
Хиппей (support team)
User avatar
Joined: 30 Jul 2007
Posts: 105198
Lоcаtion: Киев (Kyiv, UA)
Age: 45
Name: Andrey
Shah - Age of Darkness


Кгхм, а где я ранее могу слышать эту песню (либо очень похожую), но не в исполнении Шаха? :oops:

Mekong Delta?.. :scratch:

_________________


Top
 Profile E-mail  
 
 
PostPosted: 28 Dec 2016 
Хиппей (support team)
User avatar
Joined: 30 Jul 2007
Posts: 105198
Lоcаtion: Киев (Kyiv, UA)
Age: 45
Name: Andrey
artrock2010 wrote:
Вот пример российской группы, не ищущей "самобытные" пути,
а играющей строгий, классический, настоящий трэш (...)

А попробуй назвать самую строгую песни у группы, плиз :kro:

_________________


Top
 Profile E-mail  
 
 
PostPosted: 28 Dec 2016 
Генеральный thrasher
User avatar
Joined: 03 Oct 2008
Posts: 3408
Lоcаtion: Ханты-Мансийский АО
Age: 43
Name: Сергей
Сергей,а можно это услышать?


Конечно можно,Денис.Материал оцифрован с бобины в феврале сего года.

Shah - 1988
Audio - Wav Tracks

Tracklist:
01. Off-board
02. Refuse
03. Escape
04. To Die With Satisfaction
05. Warhead
06. Living Or Dead
07. Mad Future
08. Fire

https://cloud.mail.ru/public/22XE/9ivALvGXk


Top
 Profile  
 
 
PostPosted: 28 Dec 2016 
А может смените мне статус?..
User avatar
Joined: 17 Jan 2008
Posts: 845
Lоcаtion: Пенза
Age: 40
Name: Денис
Сергей,а можно это услышать?


Конечно можно,Денис.Материал оцифрован с бобины в феврале сего года.

Shah - 1988
Audio - Wav Tracks

Tracklist:
01. Off-board
02. Refuse
03. Escape
04. To Die With Satisfaction
05. Warhead
06. Living Or Dead
07. Mad Future
08. Fire

https://cloud.mail.ru/public/22XE/9ivALvGXk


Спасибо,Сергей!
Откуда источник?Металрусовский?


Top
 Profile  
 
 
PostPosted: 28 Dec 2016 
Генеральный thrasher
User avatar
Joined: 03 Oct 2008
Posts: 3408
Lоcаtion: Ханты-Мансийский АО
Age: 43
Name: Сергей
Да.Рип от Starpera.


Top
 Profile  
 
 
PostPosted: 28 Dec 2016 
Доктор энтомологии
User avatar
Joined: 22 Jan 2009
Posts: 9190
Lоcаtion: Даугавпилс
Age: 43
Name: Алексей
Всегда расплываюсь в наслаждениях, когда слушаю альбомы этих ребят :dance: От души лабали, от самой еёйного нутра


Top
 Profile  
 
 
PostPosted: 28 Dec 2016 
Хиппей (support team)
User avatar
Joined: 30 Jul 2007
Posts: 105198
Lоcаtion: Киев (Kyiv, UA)
Age: 45
Name: Andrey
thorbeorn wrote:
Shah - 1988
Audio - Wav Tracks

:thanx:

mirror: iFolder l Narod l M-Cloud

_________________


Top
 Profile E-mail  
 
 
PostPosted: 28 Dec 2016 
Хиппей (support team)
User avatar
Joined: 30 Jul 2007
Posts: 105198
Lоcаtion: Киев (Kyiv, UA)
Age: 45
Name: Andrey
Shah - 1991 - Terror Collection [flac]

Image

    1. Killing Machine '86 - 03:43
    2. Overload '91 - 03:07
    3. Damned Sinner '86 - 03:22
    4. Age of Darkness '91 - 04:08
    5. Thrashing Metal Race '85 - 04:27
    6. Terror Collection '91 - 03:33
    7. Masdon Must Die '85 - 02:34
    8. Mad Future '87 - 03:32
    9. Ashes to Ashes '85 - 06:23
    10. Metal Fight '85 - 05:28

    TPT: 40:25

mirror: iFolder l Narod l M-Cloud

И этот сборный альбом хорош, хоть и звучит местами смешно =)

7/10

Image Image

log
Exact Audio Copy V0.99 prebeta 5 from 4. May 2009

EAC extraction logfile from 26. November 2010, 21:24

Shah / Terror Collection

Used drive : LITE-ON DVDRW LH-20A1L Adapter: 4 ID: 0

Read mode : Secure
Utilize accurate stream : Yes
Defeat audio cache : Yes
Make use of C2 pointers : No

Read offset correction : 6
Overread into Lead-In and Lead-Out : No
Fill up missing offset samples with silence : Yes
Delete leading and trailing silent blocks : No
Null samples used in CRC calculations : Yes
Used interface : Installed external ASPI interface

Used output format : Internal WAV Routines
Sample format : 44.100 Hz; 16 Bit; Stereo


TOC of the extracted CD

Track | Start | Length | Start sector | End sector
---------------------------------------------------------
1 | 0:00.00 | 3:45.50 | 0 | 16924
2 | 3:45.50 | 3:10.00 | 16925 | 31174
3 | 6:55.50 | 3:25.00 | 31175 | 46549
4 | 10:20.50 | 4:11.00 | 46550 | 65374
5 | 14:31.50 | 4:30.25 | 65375 | 85649
6 | 19:02.00 | 3:37.25 | 85650 | 101949
7 | 22:39.25 | 2:36.50 | 101950 | 113699
8 | 25:16.00 | 3:34.50 | 113700 | 129799
9 | 28:50.50 | 6:25.62 | 129800 | 158736
10 | 35:16.37 | 5:31.38 | 158737 | 183599


Range status and errors

Selected range

Filename Z:\data\mp3\Seeding Archive\Shah\1991-Terror Collection\Terror Collection.wav

Peak level 99.9 %
Range quality 99.9 %
Test CRC FA06ECAF
Copy CRC FA06ECAF
Copy OK

No errors occurred


AccurateRip summary

Track 1 accurately ripped (confidence 2) [9FFB1B27]
Track 2 accurately ripped (confidence 2) [7DE7467B]
Track 3 accurately ripped (confidence 2) [4FD42592]
Track 4 accurately ripped (confidence 2) [5E096F3B]
Track 5 accurately ripped (confidence 2) [D12B4BD8]
Track 6 accurately ripped (confidence 2) [33542ED2]
Track 7 accurately ripped (confidence 2) [FF04D162]
Track 8 accurately ripped (confidence 2) [2F5FB8CF]
Track 9 accurately ripped (confidence 2) [AF0AA485]
Track 10 accurately ripped (confidence 2) [EC131FB6]

All tracks accurately ripped

End of status report

cue
REM GENRE "Thrash Metal"
REM DATE 1991
REM DISCID 7209900A
REM COMMENT "ExactAudioCopy v0.99pb5"
CATALOG 0000000000000
PERFORMER "Shah"
TITLE "Terror Collection"
FILE "Terror Collection.flac" WAVE
TRACK 01 AUDIO
TITLE "Killing Machine '86"
PERFORMER "Shah"
INDEX 01 00:00:00
TRACK 02 AUDIO
TITLE "Overload '91"
PERFORMER "Shah"
INDEX 00 03:42:50
INDEX 01 03:45:50
TRACK 03 AUDIO
TITLE "Damned Sinner'86"
PERFORMER "Shah"
INDEX 00 06:52:50
INDEX 01 06:55:50
TRACK 04 AUDIO
TITLE "Age Of Darkness '91"
PERFORMER "Shah"
INDEX 00 10:18:00
INDEX 01 10:20:50
TRACK 05 AUDIO
TITLE "Thrashing Metal Rage '85"
PERFORMER "Shah"
INDEX 00 14:30:00
INDEX 01 14:31:50
TRACK 06 AUDIO
TITLE "Terror Collection '91"
PERFORMER "Shah"
INDEX 00 18:59:00
INDEX 01 19:02:00
TRACK 07 AUDIO
TITLE "Masdon Must Die '85"
PERFORMER "Shah"
INDEX 00 22:36:00
INDEX 01 22:39:25
TRACK 08 AUDIO
TITLE "Mad Future '87"
PERFORMER "Shah"
INDEX 00 25:14:00
INDEX 01 25:16:00
TRACK 09 AUDIO
TITLE "Ashes To Ashes '85"
PERFORMER "Shah"
INDEX 00 28:49:00
INDEX 01 28:50:50
TRACK 10 AUDIO
TITLE "Metal Fight '85"
PERFORMER "Shah"
INDEX 00 35:14:00
INDEX 01 35:16:37

_________________


Top
 Profile E-mail  
 
 
PostPosted: 28 Dec 2016 
Труъ
User avatar
Joined: 25 Aug 2009
Posts: 166
Lоcаtion: Москва
Name: Павел
artrock2010, а песня "Metal Fight" как раз есть на Терроре, в перезаписанном виде, правда (как и все прочие трэки, если верить указанной инфо).
Если, конечно, тут не ищется какой-то особый русскоязычный вариант песни. Что-то не помню у сабжа композиций на-русском (во всяком случае, на выпущенных релизах)


Top
 Profile E-mail  
 
 
PostPosted: 28 Dec 2016 
Генеральный thrasher
User avatar
Joined: 03 Oct 2008
Posts: 3408
Lоcаtion: Ханты-Мансийский АО
Age: 43
Name: Сергей
Вот какой вопрос. Был в 1987 году на концерте Шаха в Сокольниках вроде бы. Давно было, не помню точно. Но помню, что очень впечатлили тогда песни, как по музыке та и по названиям, что то вроде "Марш мертвецов", "Прощание с любовью", "Священная месть"


Нигде такие песни не встречал.А на страничке группы вконтакте не спрашивал?Хотя я думаю,что эти вещи если и были,то не записывались.


Top
 Profile  
 
 
PostPosted: 28 Dec 2016 
Хиппей (support team)
User avatar
Joined: 30 Jul 2007
Posts: 105198
Lоcаtion: Киев (Kyiv, UA)
Age: 45
Name: Andrey
Shah - 1994 - P.S.I.H.O. [flac]

Image Image

mirror: iFolder l Narod l M-Cloud

Техногенный техто-трэш с альтернативными фишками (в основном вокальными) на этом альбоме снова даёт понять, что группа обогнала время лет на несколько :lloo:
Хотя, 5-й трэк это некая помесь Мегадэз 90-го и того же года Джэйнс Эддикшен :tro:

Поначалу альбом усваивался не очень легко, но затем рвануло :meloman: :lob: :lob: :lob:

9/10

Image Image Image

log
Exact Audio Copy V0.99 prebeta 5 from 4. May 2009

EAC extraction logfile from 26. November 2010, 21:24

Shah / P.S.I.H.O.

Used drive : LITE-ON LTR-40125S Adapter: 1 ID: 1

Read mode : Secure
Utilize accurate stream : Yes
Defeat audio cache : Yes
Make use of C2 pointers : No

Read offset correction : 12
Overread into Lead-In and Lead-Out : No
Fill up missing offset samples with silence : Yes
Delete leading and trailing silent blocks : No
Null samples used in CRC calculations : Yes
Used interface : Installed external ASPI interface

Used output format : Internal WAV Routines
Sample format : 44.100 Hz; 16 Bit; Stereo


TOC of the extracted CD

Track | Start | Length | Start sector | End sector
---------------------------------------------------------
1 | 0:00.00 | 3:40.60 | 0 | 16559
2 | 3:40.60 | 4:05.15 | 16560 | 34949
3 | 7:46.00 | 5:09.00 | 34950 | 58124
4 | 12:55.00 | 5:13.62 | 58125 | 81661
5 | 18:08.62 | 5:29.25 | 81662 | 106361
6 | 23:38.12 | 7:09.08 | 106362 | 138544
7 | 30:47.20 | 3:38.30 | 138545 | 154924
8 | 34:25.50 | 9:05.25 | 154925 | 195824


Range status and errors

Selected range

Filename Z:\data\mp3\Seeding Archive\Shah\1994-P.S.I.H.O\P.S.I.H.O.wav

Peak level 72.7 %
Range quality 99.9 %
Test CRC CE0E9392
Copy CRC CE0E9392
Copy OK

No errors occurred


AccurateRip summary

Track 1 accurately ripped (confidence 2) [9CF3AE05]
Track 2 accurately ripped (confidence 2) [BDACDB94]
Track 3 accurately ripped (confidence 2) [FF8D438D]
Track 4 accurately ripped (confidence 2) [1D631F2A]
Track 5 accurately ripped (confidence 2) [DE55288D]
Track 6 accurately ripped (confidence 2) [E3A440EE]
Track 7 accurately ripped (confidence 2) [8D875620]
Track 8 accurately ripped (confidence 2) [D20F68CC]

All tracks accurately ripped

End of status report

cue
REM GENRE rock
REM DATE 1994
REM DISCID 650A3308
REM COMMENT "ExactAudioCopy v0.99pb5"
CATALOG 0000000000000
PERFORMER "Shah"
TITLE "P.S.I.H.O."
FILE "P.S.I.H.O.flac" WAVE
TRACK 01 AUDIO
TITLE "P.S.I.H.O."
PERFORMER "Shah"
INDEX 01 00:00:00
TRACK 02 AUDIO
TITLE "Rhythm Of Instincts"
PERFORMER "Shah"
INDEX 00 03:40:00
INDEX 01 03:40:60
TRACK 03 AUDIO
TITLE "Open"
PERFORMER "Shah"
INDEX 00 07:44:00
INDEX 01 07:46:00
TRACK 04 AUDIO
TITLE "Turn Of The Changes"
PERFORMER "Shah"
INDEX 00 12:54:00
INDEX 01 12:55:00
TRACK 05 AUDIO
TITLE "Final Vocal"
PERFORMER "Shah"
INDEX 00 18:08:00
INDEX 01 18:08:62
TRACK 06 AUDIO
TITLE "Terminal Point"
PERFORMER "Shah"
INDEX 00 23:33:00
INDEX 01 23:38:12
TRACK 07 AUDIO
TITLE "Trespass"
PERFORMER "Shah"
INDEX 00 30:45:50
INDEX 01 30:47:20
TRACK 08 AUDIO
TITLE "Through Inside"
PERFORMER "Shah"
INDEX 00 34:25:00
INDEX 01 34:25:50

_________________


Top
 Profile E-mail  
 
 
PostPosted: 28 Dec 2016 
Труъ
User avatar
Joined: 28 Mar 2013
Posts: 129
Lоcаtion: Россия
Age: 44
Name: Влад
Сергей,а можно это услышать?


Конечно можно,Денис.Материал оцифрован с бобины в феврале сего года.

Shah - 1988
Audio - Wav Tracks

Tracklist:
01. Off-board
02. Refuse
03. Escape
04. To Die With Satisfaction
05. Warhead
06. Living Or Dead
07. Mad Future
08. Fire

https://cloud.mail.ru/public/22XE/9ivALvGXk

thorbeorn :thanx: Звучит приятней старой версии!


Top
 Profile E-mail  
 
 
PostPosted: 28 Dec 2016 
Хиппей (support team)
User avatar
Joined: 30 Jul 2007
Posts: 105198
Lоcаtion: Киев (Kyiv, UA)
Age: 45
Name: Andrey
Песня "Through Inside" с альбома 1991 года создана - по мотивам "Damage Inc." от Металлики? :lloo:

_________________


Top
 Profile E-mail  
 
 
PostPosted: 28 Dec 2016 
Прокъмитолист
User avatar
Joined: 12 Aug 2007
Posts: 6421
Lоcаtion: Санктъ-Петербуркъ
Age: 50
Name: Олекъ
thorbeorn wrote:
Материал оцифрован с бобины в феврале сего года

спасибо, Серёга. для полноты коллекции и это пригодится :thanx:

_________________
прокъметол - это музыко, от которово есть прок (ы)


Top
 Profile  
 
Display posts from previous:  Sort by  
Post new topic Reply to topic  [ 74 posts ]  Go to page Previous  1, 2, 3, 4  Next

All times are UTC + 3 hours


Who is online

Users browsing this forum: No registered users and 5 guests


You cannot post new topics in this forum
You cannot reply to topics in this forum
You cannot edit your posts in this forum
You cannot delete your posts in this forum
You cannot post attachments in this forum

Search for:
Яндекс.Метрика
Powered by phpBB © 2000, 2002, 2005, 2007 phpBB Group