\m/ 80's metal \m/

Информационно-аналитический форум "80 см пыли" (In Search We Trust) "У нас никто никуда не спешит"
Me For You - http://me-4u.com
It is currently 25 Sep 2018

All times are UTC + 3 hours

Spoiler
Chat - temporary registration for foreign users (please leave your application here)







Post new topic Reply to topic  [ 26 posts ]  Go to page Previous  1, 2
Author Message
 
PostPosted: 15 Nov 2012 
А может смените мне статус?..
User avatar
Joined: 24 Sep 2012
Posts: 856
Lоcаtion: Нижегородская обл.
Age: 48
Name: Вячеслав
Image

Исполнитель: Stormwitch
Альбом: The Beauty And The Beast
Страна: Germany (Heidenheim, Baden-Württemberg)
Год издания: 1989
Страна производителя диска: Japan
Издатель (лейбл) /Номер по каталогу: Jimco Records / HMI 3007
Жанр: Heavy Metal
Формат Аудио: FLAC (Cue/Log/Image)+ All Scans
Продолжительность Звучания Альбома: 00:36:52
Размер Архива: 282 Mb (+ 3% recovery)
Источник (релизер): slayer19

Треклист:

1. Call of the Wicked (02:57)
2. The Beauty and the Beast (04:21)
3. Just for One Night (03:23)
4. Emerald Eye (03:42)
5. Tears by the Firelight (04:03)
6. Tigers of the Sea (04:06)
7. Russia's on Fire (06:03)
8. Cheyenne (Where the Eagles Retreat) (04:58)
9. Welcome to Bedlam (03:20)

"Лог создания рипа"
Exact Audio Copy V1.0 beta 3 from 29. August 2011

Отчёт EAC об извлечении, выполненном 13. ноября 2012, 12:16

Stormwitch / The Beauty And The Beast

Дисковод: Optiarc DVD RW AD-7200A Adapter: 0 ID: 0

Режим чтения : Достоверность
Использование точного потока : Да
Отключение кэша аудио : Да
Использование указателей C2 : Нет

Коррекция смещения при чтении : 48
Способность читать области Lead-in и Lead-out : Нет
Заполнение пропущенных сэмплов тишиной : Да
Удаление блоков с тишиной в начале и конце : Нет
При вычислениях CRC использовались нулевые сэмплы : Да
Интерфейс : Встроенный Win32-интерфейс для Win NT/2000

Выходной формат : Пользовательский кодировщик
Выбранный битрейт : 128 kBit/s
Качество : Высокий
Добавление ID3-тега : Нет
Утилита сжатия : C:\Program Files\FLAC\FLAC frontend.exe

TOC извлечённого CD

Трек | Старт | Длительность | Начальный сектор | Конечный сектор
---------------------------------------------------------------------
1 | 0:00.00 | 2:56.67 | 0 | 13266
2 | 2:56.67 | 4:20.43 | 13267 | 32809
3 | 7:17.35 | 3:22.42 | 32810 | 48001
4 | 10:40.02 | 3:41.48 | 48002 | 64624
5 | 14:21.50 | 4:02.60 | 64625 | 82834
6 | 18:24.35 | 4:06.22 | 82835 | 101306
7 | 22:30.57 | 6:03.03 | 101307 | 128534
8 | 28:33.60 | 4:57.62 | 128535 | 150871
9 | 33:31.47 | 3:20.15 | 150872 | 165886

Характеристики диапазона извлечения и сообщения об ошибках

Выбранный диапазон

Имя файла D:\МОИ ФАЙЛЫ\LOSSLESS\slayer19\Stormwitch - The Beauty And The Beast.wav

Пиковый уровень 100.0 %
Скорость извлечения 3.6 X
Качество диапазона 100.0 %
CRC теста 7353D74E
CRC копии 7353D74E
Копирование... OK

Ошибок не произошло

AccurateRip: сводка

Трек 1 отсутствует в базе данных
Трек 2 отсутствует в базе данных
Трек 3 отсутствует в базе данных
Трек 4 отсутствует в базе данных
Трек 5 отсутствует в базе данных
Трек 6 отсутствует в базе данных
Трек 7 отсутствует в базе данных
Трек 8 отсутствует в базе данных
Трек 9 отсутствует в базе данных

Ни одного трека нет в базе AccurateRip

Конец отчёта

---- CUETools DB Plugin V2.1.3

[CTDB TOCID: XJE9DGwY1tY8Ce4ptdFdEI6wCXA-] disk not present in database, Submit result: XJE9DGwY1tY8Ce4ptdFdEI6wCXA- has been uploaded

==== Контрольная сумма отчёта C3109D654F0EE097F5194C58DD10F66F643CA3AC35ECA8A1474011CEFA943372 ====

"Фото"
Image


Cкачать: Stormwitch - The Beauty And The Beast 1987 (Japan) by slayer19.rar

_________________
Image


Top
 Profile E-mail  
 
 
PostPosted: 11 Oct 2013 
Хиппей (support team)
User avatar
Joined: 30 Jul 2007
Posts: 106553
Lоcаtion: Киев (Kyiv, UA)
Age: 45
Name: Andrey
Мдя... :lloo:

phpBB [youtube]

_________________


Top
 Profile E-mail  
 
 
PostPosted: 11 Oct 2013 
Персональный статус
Joined: 15 Nov 2008
Posts: 285
Lоcаtion: прага
Age: 48
Name: .сергей
ты забыл что для меня это темный лес :dash: :dash: :dash:


Top
 Profile  
 
 
PostPosted: 11 Oct 2013 
Персональный статус
Joined: 15 Nov 2008
Posts: 285
Lоcаtion: прага
Age: 48
Name: .сергей
между прочим на флейте играет дочь Stefana Kaufmana(stormwitch). :str:


Top
 Profile  
 
 
PostPosted: 11 Oct 2013 
HAMMER
User avatar
Joined: 16 May 2009
Posts: 5370
Lоcаtion: Тверь
Age: 45
Name: Александр
между прочим на флейте играет дочь Stefana Kaufmana(stormwitch). :str:

Это из Accept который?


Top
 Profile E-mail  
 
 
PostPosted: 11 Oct 2013 
Power Metal Maniac
User avatar
Joined: 09 Aug 2008
Posts: 6305
Lоcаtion: Москва
Age: 40
Name: Егор
нет, это другой, в Stormwith он обычно Steve Merchant себя называл: http://www.metal-archives.com/artists/S ... hant/48003

_________________
Long Live Metal!


Top
 Profile  
 
 
PostPosted: 11 Oct 2013 
Хиппей (support team)
User avatar
Joined: 30 Jul 2007
Posts: 106553
Lоcаtion: Киев (Kyiv, UA)
Age: 45
Name: Andrey
ты забыл что для меня это темный лес :dash: :dash: :dash:

Хм, скопировать файлы с болванки и залить. Знатно, как же ты до этого момента качал файлы из Сети? :shok:
Ай, хотя, ну тогда и хрен с тем видео =)
Я уже понял, что двд выйдет в официальном варианте.

_________________


Top
 Profile E-mail  
 
Display posts from previous:  Sort by  
Post new topic Reply to topic  [ 26 posts ]  Go to page Previous  1, 2

All times are UTC + 3 hours


Who is online

Users browsing this forum: No registered users and 1 guest


You cannot post new topics in this forum
You cannot reply to topics in this forum
You cannot edit your posts in this forum
You cannot delete your posts in this forum
You cannot post attachments in this forum

Search for:
Яндекс.Метрика
Powered by phpBB © 2000, 2002, 2005, 2007 phpBB Group