\m/ 80's metal \m/

Информационно-аналитический форум "80 см пыли" (In Search We Trust) "У нас никто никуда не спешит"
Me For You - http://me-4u.com
It is currently 30 Mar 2020

All times are UTC + 3 hours

Spoiler
Chat - temporary registration for foreign users (please leave your application here)







Post new topic Reply to topic  [ 24 posts ]  Go to page 1, 2  Next
Author Message
 
PostPosted: 28 Oct 2012 
Анатолий
User avatar
Joined: 18 Oct 2008
Posts: 3777
Lоcаtion: Армавир
Age: 42
Name: Анатолий
Slander - "Careless Talk Costs Lives" - 1991

Image

The cult NWOBHM album from 1991, re-released as double CD set. Disc 1 contains the original album, while Disc 2 contains freshly re-recorded versions pus brand new songs.

CD #1 1991:

1. Fighting Talk
2. On the Run
3. Scheno
4. Colour of Your Money
5. Lonely Nights
6. No Road Back
7. In your World
8. Passion Crimes
9. Shadow in the Night
10. Built to Destroy
11. Lay Down the Law
12. Cry of the Wolf

CD #2 2011:

1. Fighting Talk
2. On the Run
3. Colour of Your Money
4. Lonely Nights
5. Hangman
6. In your World
7. Shadows
8. Land of Darkness
9. Midnight Train
10. This Time You Lose
11. Ends of the Circle
12. Cry of the Wolf


Last edited by Privateer on 15 Oct 2013, edited 1 time in total.

Top
 Profile E-mail  
 
 
PostPosted: 28 Oct 2012 
консэрваторъ
User avatar
Joined: 11 Aug 2007
Posts: 17574
Lоcаtion: Псков
Age: 46
Name: Сергей
SLANDER - Careless Talk Costs Lives 2CD SSR-DL62
Release date: April 20, 2011
Format: Double jewel case 2CD, 12-page booklet
Limited to 1000 hand-numbered copies

Вот этот испанский мачо год назад выкладывал весь второй диск...

_________________
THRASH 'EM ALL


Top
 Profile E-mail  
 
 
PostPosted: 28 Oct 2012 
Анатолий
User avatar
Joined: 18 Oct 2008
Posts: 3777
Lоcаtion: Армавир
Age: 42
Name: Анатолий
splatty wrote:
весь второй диск...


Меня он меньше интересует... чем диск первый...


Top
 Profile E-mail  
 
 
PostPosted: 13 Oct 2013 
Работнечег
User avatar
Joined: 28 Aug 2007
Posts: 6195
Lоcаtion: г. Москва
Age: 31
Name: Дима
Image

Label: Stormspell Records
Genre: Heavy Metal
Country: UK
Format: Flac + Log + Cue + Covers
Size: 430 Mb + 285 Mb

LOG
Exact Audio Copy V0.99 prebeta 5 from 4. May 2009

EAC extraction logfile from 13. October 2013, 17:54

Slander / Careless Talk Costs Lives 1991

Used drive : PIONEER DVD-RW DVR-116D Adapter: 0 ID: 0

Read mode : Secure
Utilize accurate stream : Yes
Defeat audio cache : Yes
Make use of C2 pointers : No

Read offset correction : 96
Overread into Lead-In and Lead-Out : No
Fill up missing offset samples with silence : Yes
Delete leading and trailing silent blocks : No
Null samples used in CRC calculations : Yes
Used interface : Native Win32 interface for Win NT & 2000

Used output format : User Defined Encoder
Selected bitrate : 32 kBit/s
Quality : High
Add ID3 tag : No
Command line compressor : C:\Program Files\Exact Audio Copy\Flac\flac.exe
Additional command line options : -6 -V %s


TOC of the extracted CD

Track | Start | Length | Start sector | End sector
---------------------------------------------------------
1 | 0:00.00 | 3:51.52 | 0 | 17376
2 | 3:51.52 | 3:21.16 | 17377 | 32467
3 | 7:12.68 | 3:01.12 | 32468 | 46054
4 | 10:14.05 | 3:09.66 | 46055 | 60295
5 | 13:23.71 | 3:54.33 | 60296 | 77878
6 | 17:18.29 | 3:44.57 | 77879 | 94735
7 | 21:03.11 | 3:23.58 | 94736 | 110018
8 | 24:26.69 | 5:17.35 | 110019 | 133828
9 | 29:44.29 | 3:23.34 | 133829 | 149087
10 | 33:07.63 | 3:14.64 | 149088 | 163701
11 | 36:22.52 | 4:40.08 | 163702 | 184709
12 | 41:02.60 | 5:02.18 | 184710 | 207377


Range status and errors

Selected range

Filename D:\Музыка\Lossless\Slander - Careless Talk Costs Lives (1991) (Reissued In 2011)\Slander - Careless Talk Costs Lives 1991.wav

Peak level 98.9 %
Range quality 100.0 %
Copy CRC 2744D4A9
Copy OK

No errors occurred


AccurateRip summary

Track 1 not present in database
Track 2 not present in database
Track 3 not present in database
Track 4 not present in database
Track 5 not present in database
Track 6 not present in database
Track 7 not present in database
Track 8 not present in database
Track 9 not present in database
Track 10 not present in database
Track 11 not present in database
Track 12 not present in database

None of the tracks are present in the AccurateRip database

End of status report

CUE
REM GENRE "Heavy Metal"
REM DATE 2011
REM DISCID A50ACD0C
REM COMMENT "ExactAudioCopy v0.99pb5"
PERFORMER "Slander"
TITLE "Careless Talk Costs Lives 1991"
FILE "Slander - Careless Talk Costs Lives 1991.flac" WAVE
TRACK 01 AUDIO
TITLE "Fighting Talk"
PERFORMER "Slander"
FLAGS DCP
INDEX 01 00:00:00
TRACK 02 AUDIO
TITLE "On The Run"
PERFORMER "Slander"
FLAGS DCP
INDEX 01 03:51:52
TRACK 03 AUDIO
TITLE "Scheno"
PERFORMER "Slander"
FLAGS DCP
INDEX 01 07:12:68
TRACK 04 AUDIO
TITLE "Colour Of Your Money"
PERFORMER "Slander"
FLAGS DCP
INDEX 01 10:14:05
TRACK 05 AUDIO
TITLE "Lonely Nights"
PERFORMER "Slander"
FLAGS DCP
INDEX 01 13:23:71
TRACK 06 AUDIO
TITLE "No Road Back"
PERFORMER "Slander"
FLAGS DCP
INDEX 01 17:18:29
TRACK 07 AUDIO
TITLE "In Your World"
PERFORMER "Slander"
FLAGS DCP
INDEX 01 21:03:11
TRACK 08 AUDIO
TITLE "Passion Crimes"
PERFORMER "Slander"
FLAGS DCP
INDEX 01 24:26:69
TRACK 09 AUDIO
TITLE "Shadow In The Night"
PERFORMER "Slander"
FLAGS DCP
INDEX 01 29:44:29
TRACK 10 AUDIO
TITLE "Built To Destroy"
PERFORMER "Slander"
FLAGS DCP
INDEX 01 33:07:63
TRACK 11 AUDIO
TITLE "Lay Down The Law"
PERFORMER "Slander"
FLAGS DCP
INDEX 01 36:22:52
TRACK 12 AUDIO
TITLE "Cry Of The Wolf"
PERFORMER "Slander"
FLAGS DCP
INDEX 01 41:02:60


Part I
Part II


Top
 Profile E-mail  
 
 
PostPosted: 13 Oct 2013 
Хиппей (support team)
User avatar
Joined: 30 Jul 2007
Posts: 118443
Lоcаtion: Киев (Kyiv, UA)
Age: 46
Name: Andrey
:thanx:

mirror: Narod

_________________


Top
 Profile E-mail  
 
 
PostPosted: 13 Oct 2013 
\m/ 80 см сала \m/
User avatar
Joined: 12 Mar 2012
Posts: 2596
Age: 26
Name: Nick
:lloo: :thanx:

_________________
1990 AUROPHON BRAINSTORM (Germany) - lossless
1994 MAUSOLEUM CLASSIX (Belgium-Germany) - lossless
1998 VA - GRIM HARVEST - Complete Metal Massacre Volumes I-XII


Top
 Profile  
 
 
PostPosted: 13 Oct 2013 
Труъ
User avatar
Joined: 27 Feb 2009
Posts: 186
Lоcаtion: Питер
Age: 52
Name: Олег
:thanx: :thanx: :thanx:


Top
 Profile  
 
 
PostPosted: 14 Oct 2013 
Хиппей (support team)
User avatar
Joined: 30 Jul 2007
Posts: 118443
Lоcаtion: Киев (Kyiv, UA)
Age: 46
Name: Andrey
Начал слушать оба диска... и сравнивать.
Поясните, мне, плиз, на русском языке - второй диск это точно современная полная перезапись раннего материала группы плюс парочка новых трэков? :oops:

_________________


Top
 Profile E-mail  
 
 
PostPosted: 14 Oct 2013 
Хиппей (support team)
User avatar
Joined: 30 Jul 2007
Posts: 118443
Lоcаtion: Киев (Kyiv, UA)
Age: 46
Name: Andrey
Хм, продолжаю слушать первый альбом группы, слепленный из различный демо-песен.
Занятная помесь первородного британского хэви и такого же еле-еле зарождающегося пауэра. Ок, пусть это будет называться запоздалой NWOBHM, я пока не против, ибо очень много мотивом и из этого направления слышно.
Альбом-сборка, а тем более некоторые очень активные песни, зело радует :meloman: Продолжаю наслаждаться впервые работой этого коллектива.
Надеюсь, второй диск не разочарует :dance:

_________________


Top
 Profile E-mail  
 
 
PostPosted: 14 Oct 2013 
Хиппей (support team)
User avatar
Joined: 30 Jul 2007
Posts: 118443
Lоcаtion: Киев (Kyiv, UA)
Age: 46
Name: Andrey
Quote:
Сейчас этот форум просматривают: cryptors, Scatterbrain и гости: 1

Здравствуй, Димитарчик.
К сожалению, эта тема не совсем для тебя - здесь нет сопливых мелодичный хэви-композиций и звук не очень похож на болгарский ремастер.
Хотя.... А попробуй-ка заслушать песню "Passion Crimes" :meloman:

_________________


Top
 Profile E-mail  
 
 
PostPosted: 14 Oct 2013 
Работнечег
User avatar
Joined: 28 Aug 2007
Posts: 6195
Lоcаtion: г. Москва
Age: 31
Name: Дима
Начал слушать оба диска... и сравнивать.
Поясните, мне, плиз, на русском языке - второй диск это точно современная полная перезапись раннего материала группы плюс парочка новых трэков? :oops:

Мне честно тоже как-то звук на втором диске немного удивил, не сказать, что он плохой, но по сравнению с первым слишком много низких и мало высоких, имхо. немного глухова-то звучит


Top
 Profile E-mail  
 
 
PostPosted: 14 Oct 2013 
Я набрал 1000 сообщений!
Joined: 12 Dec 2008
Posts: 1085
Lоcаtion: BULGARIA
Age: 41
Name: DIMITЪR
Quote:
Сейчас этот форум просматривают: cryptors, Scatterbrain и гости: 1

Здравствуй, Димитарчик.
К сожалению, эта тема не совсем для тебя - здесь нет сопливых мелодичный хэви-композиций и звук не очень похож на болгарский ремастер.
Хотя.... А попробуй-ка заслушать песню "Passion Crimes" :meloman:


Я люблю такой звук, а я не делаю никокой ремастер ,все оригинал .

Они хотели во второй диск звук максимально приближаться до оригинальньй звучения от 1991г


Top
 Profile  
 
 
PostPosted: 14 Oct 2013 
\m/ 80 см сала \m/
User avatar
Joined: 12 Mar 2012
Posts: 2596
Age: 26
Name: Nick
Я далеко не любитель НВОБХМ, но оригинальная запись понравилась - олдскульненько так, не смотря на 91 год :meloman:
church, :thanx:

_________________
1990 AUROPHON BRAINSTORM (Germany) - lossless
1994 MAUSOLEUM CLASSIX (Belgium-Germany) - lossless
1998 VA - GRIM HARVEST - Complete Metal Massacre Volumes I-XII


Top
 Profile  
 
 
PostPosted: 14 Oct 2013 
Хиппей (support team)
User avatar
Joined: 30 Jul 2007
Posts: 118443
Lоcаtion: Киев (Kyiv, UA)
Age: 46
Name: Andrey
Отслушал и второй диск...
Звук пока нравится, но вот сама музыка как-то однотипно звучит :scratch:
Продолжаю неспеша слушать дальше. Внимательно и вдумчиво. Но, уже сдается мне, что над новыми песнями работало максимум два человека - вокалист и компьютер :lloo:

_________________


Top
 Profile E-mail  
 
 
PostPosted: 15 Oct 2013 
Хиппей (support team)
User avatar
Joined: 30 Jul 2007
Posts: 118443
Lоcаtion: Киев (Kyiv, UA)
Age: 46
Name: Andrey
Слушал, слушал. Не-а, второй диск слишком монотонен :(

_________________


Top
 Profile E-mail  
 
 
PostPosted: 15 Oct 2013 
Хиппей (support team)
User avatar
Joined: 30 Jul 2007
Posts: 118443
Lоcаtion: Киев (Kyiv, UA)
Age: 46
Name: Andrey
Анатолий, рекса сымать, или ты пока еще не слушал рип? :lloo:

_________________


Top
 Profile E-mail  
 
 
PostPosted: 15 Oct 2013 
Анатолий
User avatar
Joined: 18 Oct 2008
Posts: 3777
Lоcаtion: Армавир
Age: 42
Name: Анатолий
Scatterbrain wrote:
Анатолий, рекса сымать, или ты пока еще не слушал рип?


Рекс можно снимать. Спасибо Дмитрию!!! :thanx: :true:


Top
 Profile E-mail  
 
 
PostPosted: 15 Oct 2013 
Рарник и трушник
User avatar
Joined: 25 Dec 2009
Posts: 9095
Lоcаtion: Москва
Age: 54
Name: Виталий
Спасибо! :thanx:


Top
 Profile  
 
 
PostPosted: 15 Oct 2013 
консэрваторъ
User avatar
Joined: 11 Aug 2007
Posts: 17574
Lоcаtion: Псков
Age: 46
Name: Сергей
Privateer wrote:
Рекс можно снимать

Толя, дак ты и сам рекса снять можешь, просто эдит свой первый пост и подправь заголовок топа...

_________________
THRASH 'EM ALL


Top
 Profile E-mail  
 
 
PostPosted: 25 Jan 2019 
Я набрал 1000 сообщений!
Joined: 12 Dec 2008
Posts: 1085
Lоcаtion: BULGARIA
Age: 41
Name: DIMITЪR
Ищу SLANDER - RESOLUTION DEFIANCE (2017), у кого есть? :pardon: :pardon: :pardon:
https://www.discogs.com/Slander-Resolut ... e/11931350


Top
 Profile  
 
Display posts from previous:  Sort by  
Post new topic Reply to topic  [ 24 posts ]  Go to page 1, 2  Next

All times are UTC + 3 hours


Who is online

Users browsing this forum: No registered users and 1 guest


You cannot post new topics in this forum
You cannot reply to topics in this forum
You cannot edit your posts in this forum
You cannot delete your posts in this forum
You cannot post attachments in this forum

Search for:
Яндекс.Метрика
Powered by phpBB © 2000, 2002, 2005, 2007 phpBB Group