\m/ 80's metal \m/

Информационно-аналитический форум "80 см пыли" (In Search We Trust) "У нас никто никуда не спешит"
Me For You - http://me-4u.com
It is currently 24 Sep 2018

All times are UTC + 3 hours

Spoiler
Chat - temporary registration for foreign users (please leave your application here)







Post new topic Reply to topic  [ 7 posts ] 
Author Message
 
PostPosted: 06 Sep 2012 
Работнечег
User avatar
Joined: 28 Aug 2007
Posts: 5409
Lоcаtion: г. Москва
Age: 29
Name: Дима
Image

Band: Suicide Kings
Album: Supersonic
Label: Finished Records
Genre: Hard Rock with some alternative influence
Country: USA
Format: Flac + Log + Cue + Covers/ Mp3@320 + Covers
Size: 198 Mb / 76 Mb

Line-Up:
Chris Solberg - Guitar, Vocals
Vince Meehan - Bass, Vocals
Angelo Paramonte - Drums


Tracklist:
1. Bury That Clown
2. Supersonic
3. Blessed
4. Deja Vu
5. Public Display
6. Way Too Fast
7. Toxic Generation
8. Montage
9. ??? / Paranoid (Black Sabbath Cover) / Ace Of Spades (Motorhead Cover) / ???

LOG
Exact Audio Copy V0.99 prebeta 5 from 4. May 2009

EAC extraction logfile from 4. September 2012, 16:43

Suicide Kings / Supersonic

Used drive : PIONEER DVD-RW DVR-116D Adapter: 0 ID: 0

Read mode : Secure
Utilize accurate stream : Yes
Defeat audio cache : Yes
Make use of C2 pointers : No

Read offset correction : 96
Overread into Lead-In and Lead-Out : No
Fill up missing offset samples with silence : Yes
Delete leading and trailing silent blocks : No
Null samples used in CRC calculations : Yes
Used interface : Native Win32 interface for Win NT & 2000

Used output format : User Defined Encoder
Selected bitrate : 32 kBit/s
Quality : High
Add ID3 tag : No
Command line compressor : C:\Program Files\Exact Audio Copy\Flac\flac.exe
Additional command line options : -6 -V %s


TOC of the extracted CD

Track | Start | Length | Start sector | End sector
---------------------------------------------------------
1 | 0:00.00 | 2:41.67 | 0 | 12141
2 | 2:41.67 | 2:39.00 | 12142 | 24066
3 | 5:20.67 | 4:24.08 | 24067 | 43874
4 | 9:45.00 | 2:18.20 | 43875 | 54244
5 | 12:03.20 | 3:29.50 | 54245 | 69969
6 | 15:32.70 | 3:27.62 | 69970 | 85556
7 | 19:00.57 | 5:24.33 | 85557 | 109889
8 | 24:25.15 | 1:17.65 | 109890 | 115729
9 | 25:43.05 | 3:47.07 | 115730 | 132761


Range status and errors

Selected range

Filename D:\Музыка\Lossless\Suicide Kings - Supersonic (1998)\Suicide Kings - Supersonic.wav

Peak level 92.2 %
Range quality 100.0 %
Copy CRC 8656E1C4
Copy OK

No errors occurred


AccurateRip summary

Track 1 not present in database
Track 2 not present in database
Track 3 not present in database
Track 4 not present in database
Track 5 not present in database
Track 6 not present in database
Track 7 not present in database
Track 8 not present in database
Track 9 not present in database

None of the tracks are present in the AccurateRip database

End of status report

CUE
REM GENRE "Melodic Hard Rock"
REM DATE 1998
REM DISCID 6E06EA09
REM COMMENT "ExactAudioCopy v0.99pb5"
PERFORMER "Suicide Kings"
TITLE "Supersonic"
FILE "Suicide Kings - Supersonic.flac" WAVE
TRACK 01 AUDIO
TITLE "Bury That Clown"
PERFORMER "Suicide Kings"
INDEX 01 00:00:00
TRACK 02 AUDIO
TITLE "Supersonic"
PERFORMER "Suicide Kings"
INDEX 01 02:41:67
TRACK 03 AUDIO
TITLE "Blessed"
PERFORMER "Suicide Kings"
INDEX 01 05:20:67
TRACK 04 AUDIO
TITLE "Deja Vu"
PERFORMER "Suicide Kings"
INDEX 01 09:45:00
TRACK 05 AUDIO
TITLE "Public Display"
PERFORMER "Suicide Kings"
INDEX 01 12:03:20
TRACK 06 AUDIO
TITLE "Way Too Fast"
PERFORMER "Suicide Kings"
INDEX 01 15:32:70
TRACK 07 AUDIO
TITLE "Toxic Generation"
PERFORMER "Suicide Kings"
INDEX 01 19:00:57
TRACK 08 AUDIO
TITLE "Montage"
PERFORMER "Suicide Kings"
INDEX 01 24:25:15
TRACK 09 AUDIO
TITLE "Paranoid (Black Sabbath Cover) / Ace Of Spades (Motorhead Cover) / "
PERFORMER "Suicide Kings"
INDEX 01 25:43:05


Lossless
MP3@320

За предоставленный раритет говорим спасибо spryt777!
Довольно простой хард, но не напрягающий, есть 2-3 отличные песни, остальные тож неплохи.
На заднике неправильная очередность начиная с 5 трэка и почему-то нет 9. Девятый трэк представляет из себя компиляцию каверов, немного странных. Первый вроде как и паранойд, но куплеты вроде не из этой песни, не разобрался и последний кавер не узнал, хотя что-то известное. Если кто поможет в опознавании буду рад!


Top
 Profile E-mail  
 
 
PostPosted: 06 Sep 2012 
Доктор энтомологии
User avatar
Joined: 22 Jan 2009
Posts: 9332
Lоcаtion: Даугавпилс
Age: 43
Name: Алексей
98.. как неприятно... скачаю для прослушки 320 :fingal: :thanx:


Top
 Profile  
 
 
PostPosted: 12 Sep 2012 
хард н хэвщик (support team)
User avatar
Joined: 02 Jun 2008
Posts: 16880
Lоcаtion: Н.Новгород
Age: 31
Name: Артем
Саня, спасибо! :thanx: :true:


Top
 Profile  
 
 
PostPosted: 24 Nov 2012 
Персональный статус
Joined: 06 Apr 2009
Posts: 376
Lоcаtion: hong kong
Age: 27
Name: andy
thank you!

_________________
LOVE ROCK


Top
 Profile  
 
 
PostPosted: 31 Jul 2013 
Хиппей (support team)
User avatar
Joined: 30 Jul 2007
Posts: 106508
Lоcаtion: Киев (Kyiv, UA)
Age: 45
Name: Andrey
:thanx:

mirror: F-Bit l Narod

_________________


Top
 Profile E-mail  
 
 
PostPosted: 02 Aug 2013 
Хиппей (support team)
User avatar
Joined: 30 Jul 2007
Posts: 106508
Lоcаtion: Киев (Kyiv, UA)
Age: 45
Name: Andrey
church wrote:
Девятый трэк представляет из себя компиляцию каверов, немного странных. Первый вроде как и паранойд, но куплеты вроде не из этой песни, не разобрался и последний кавер не узнал, хотя что-то известное. Если кто поможет в опознавании буду рад!

Димка, срочно в угол - на сало :crazy:
Это ж легендарный "Пиковый туз" от Мотёрхэда :true:
Ааа, стоп. Ты ж его прописал в списке здесь :kamrad:
Дальше идут не менее легендарные куски из Slade и Sex Pistols :dance:
Да и весь альбом является приклом и пародией на классику рока начиная с 60-х (Битлы), Роллингов, дальше якобы неожиданно поиздевались над Nirnava и Soundgarden и другими апологетами жанра. Прошлись красивенько по индастриалу в духе Министри и раннего Данзига, зацепили Маришку из Shocking Blue, и всё это сопровождается не хард-роком, а немного прокажённым хэви вперемешку с панковскими воплями, Блэкасаббатовскими риффами и стоунеровскими занудами, а там и бритпоп подоспел :true:
В общем, альбом настольная песня для рок-меломанена :meloman:

Итого, не рычите, но альбом оцениваю в 9 баллов из 10 :begun:

Спасибо за веселуху :thanx: Я аж проснулся :ura:

зы. Да и трэки явно спутаны не случайно =)

И группа, скорее всего, названа в честь известного фильма :pardon:

phpBB [youtube]

_________________


Top
 Profile E-mail  
 
 
PostPosted: 02 Aug 2013 
Хиппей (support team)
User avatar
Joined: 30 Jul 2007
Posts: 106508
Lоcаtion: Киев (Kyiv, UA)
Age: 45
Name: Andrey
Ща полез в тырнет, чтобы найти хоть что-то толковое по группе.
Ржака. Лишь ссылки на альбом и дурацкие попытки отнести альбом к какому-то определённому стилю :crazy:

В итоге, вот нашёл вот хоть что-то адекватное и в виде краткого обзора http://www.yperano.com/content/suicide- ... heap-trick :thanx:

_________________


Top
 Profile E-mail  
 
Display posts from previous:  Sort by  
Post new topic Reply to topic  [ 7 posts ] 

All times are UTC + 3 hours


Who is online

Users browsing this forum: No registered users and 1 guest


You cannot post new topics in this forum
You cannot reply to topics in this forum
You cannot edit your posts in this forum
You cannot delete your posts in this forum
You cannot post attachments in this forum

Search for:
Яндекс.Метрика
Powered by phpBB © 2000, 2002, 2005, 2007 phpBB Group