\m/ 80's metal \m/

Информационно-аналитический форум "80 см пыли" (In Search We Trust) "У нас никто никуда не спешит"
Железнодорожная биржа - RailAgent
It is currently 21 Jul 2018

All times are UTC + 3 hours

Spoiler
Chat - temporary registration for foreign users (please leave your application here)







Post new topic Reply to topic  [ 14 posts ] 
Author Message
 
PostPosted: 22 Aug 2012 
Персональный статус
Joined: 30 Aug 2008
Posts: 326
Lоcаtion: Львов
Age: 44
Name: .Алексей
в поиске второй альбом
Nordic Rage 2005
Image
1. Your Pain 04:39
2. Feeling Dead 03:11
3. Rushhead 04:07
4. Far Beyond 06:08
5. Rage in Eden 05:03
6. Crankaholic 03:14
7. Stolen Mind 05:19
8. Individual Deathmatch 05:04
9. Smallthinker 07:37
10. Blood Sign 05:30


Top
 Profile E-mail  
 
 
PostPosted: 22 Aug 2012 
Rara avis
User avatar
Joined: 27 Jan 2009
Posts: 4466
Name: .
Был здесь - http://forum.altermusic.ru/viewtopic.php?f=2&t=33 :pardon:


Top
 Profile E-mail  
 
 
PostPosted: 22 Aug 2012 
хард н хэвщик (support team)
User avatar
Joined: 02 Jun 2008
Posts: 16880
Lоcаtion: Н.Новгород
Age: 31
Name: Артем
http://vkontakte.dj/cat/album/269502 :pardon: качать, исспользуя связку adblockplus + firefox (как именно это сделать, описано мною здесь: viewtopic.php?f=21&t=7558 )


Top
 Profile  
 
 
PostPosted: 23 Aug 2012 
Персональный статус
Joined: 30 Aug 2008
Posts: 326
Lоcаtion: Львов
Age: 44
Name: .Алексей
А воз и ныне там.
Просьба нормальную ссыль ,а не дохлую и ссыль в контакте, на х.. знает що .


Top
 Profile E-mail  
 
 
PostPosted: 23 Aug 2012 
хард н хэвщик (support team)
User avatar
Joined: 02 Jun 2008
Posts: 16880
Lоcаtion: Н.Новгород
Age: 31
Name: Артем
ну тада :pardon:


Top
 Profile  
 
 
PostPosted: 23 Aug 2012 
Персональный статус
Joined: 30 Aug 2008
Posts: 326
Lоcаtion: Львов
Age: 44
Name: .Алексей
Нашел полную версию в суслике, в контактах без 9 песни.
http://rusfolder.com/32269112


Top
 Profile E-mail  
 
 
PostPosted: 24 Aug 2012 
консэрваторъ
Joined: 11 Aug 2007
Posts: 15681
Lоcаtion: Псков
Age: 44
Name: Сергей
Похоже рекса можно снимать...

_________________
THRASH 'EM ALL


Top
 Profile E-mail  
 
 
PostPosted: 06 Sep 2012 
Работнечег
User avatar
Joined: 28 Aug 2007
Posts: 5387
Lоcаtion: г. Москва
Age: 29
Name: Дима
Послушаю, если понравиться, куплю дисок, он копейки стоит.


Top
 Profile E-mail  
 
 
PostPosted: 13 Aug 2013 
Работнечег
User avatar
Joined: 28 Aug 2007
Posts: 5387
Lоcаtion: г. Москва
Age: 29
Name: Дима
Image

Band: Slowgate
Album: Nordic Rage
Label: Extremity Records
Genre: Heavy/Thrash Metal
Country: Sweden
Format: Flac + Log + Cue + Covers + Videoclip/MP3@320 + Covers + Videoclip
Size: 286 Mb + 223 Mb/ 238 Mb

Line-Up:
Cribba Larsson - Vocals
Nicklas Johansson - Lead, Harmony and Rhytm Guitars, Backing Voclas (Maninnya Blade, ex-Hexenhaus)
Thomas Kraus -Rhytm, Harmony and Acoustics Guitars
Jan Lindberg - Bass (Maninnya Blade, ex-Warchild, ex-Warning)
Kennet Olofsson - Drums


Tracklist:
1. Your Pain 04:39
2. Feeling Dead 03:11
3. Rushhead 04:07
4. Far Beyond 06:08
5. Rage in Eden 05:03
6. Crankaholic 03:14
7. Stolen Mind 05:19
8. Individual Deathmatch 05:04
9. Smallthinker 07:37
10. Blood Sign 05:30

Includes a Video-Clip of "Rage in Eden"

LOG
Exact Audio Copy V0.99 prebeta 5 from 4. May 2009

EAC extraction logfile from 7. August 2013, 20:48

Slowgate / Nordic Rage

Used drive : PIONEER DVD-RW DVR-116D Adapter: 0 ID: 0

Read mode : Secure
Utilize accurate stream : Yes
Defeat audio cache : Yes
Make use of C2 pointers : No

Read offset correction : 96
Overread into Lead-In and Lead-Out : No
Fill up missing offset samples with silence : Yes
Delete leading and trailing silent blocks : No
Null samples used in CRC calculations : Yes
Used interface : Native Win32 interface for Win NT & 2000

Used output format : User Defined Encoder
Selected bitrate : 32 kBit/s
Quality : High
Add ID3 tag : No
Command line compressor : C:\Program Files\Exact Audio Copy\Flac\flac.exe
Additional command line options : -6 -V %s


TOC of the extracted CD

Track | Start | Length | Start sector | End sector
---------------------------------------------------------
1 | 0:00.00 | 4:39.09 | 0 | 20933
2 | 4:39.09 | 3:11.09 | 20934 | 35267
3 | 7:50.18 | 4:07.56 | 35268 | 53848
4 | 11:57.74 | 6:07.31 | 53849 | 81404
5 | 18:05.30 | 5:02.47 | 81405 | 104101
6 | 23:08.02 | 3:14.68 | 104102 | 118719
7 | 26:22.70 | 5:18.60 | 118720 | 142629
8 | 31:41.55 | 5:03.33 | 142630 | 165387
9 | 36:45.13 | 7:37.11 | 165388 | 199673
10 | 44:22.24 | 5:29.59 | 199674 | 224407
11 | 52:24.08 | 12:05.69 | 235808 | 290251


Range status and errors

Selected range

Filename D:\Музыка\Lossless\Slowgate - Nordic Rage (2005) FLAC\Slowgate - Nordic Rage.wav

Peak level 100.0 %
Range quality 100.0 %
Copy CRC 9FC0223D
Copy OK

No errors occurred


AccurateRip summary

Track 1 not present in database
Track 2 not present in database
Track 3 not present in database
Track 4 not present in database
Track 5 not present in database
Track 6 not present in database
Track 7 not present in database
Track 8 not present in database
Track 9 not present in database
Track 10 not present in database

None of the tracks are present in the AccurateRip database

End of status report

CUE
REM GENRE "Heavy/Thrash Metal"
REM DATE 2005
REM DISCID 920F1E0B
REM COMMENT "ExactAudioCopy v0.99pb5"
PERFORMER "Slowgate"
TITLE "Nordic Rage"
FILE "Slowgate - Nordic Rage.flac" WAVE
TRACK 01 AUDIO
TITLE "Your Pain"
PERFORMER "Slowgate"
INDEX 01 00:00:00
TRACK 02 AUDIO
TITLE "Feeling Dead"
PERFORMER "Slowgate"
INDEX 00 04:38:42
INDEX 01 04:39:09
TRACK 03 AUDIO
TITLE "Rushhead"
PERFORMER "Slowgate"
INDEX 01 07:50:18
TRACK 04 AUDIO
TITLE "Far Beyond"
PERFORMER "Slowgate"
INDEX 00 11:56:37
INDEX 01 11:57:74
TRACK 05 AUDIO
TITLE "Rage In Eden"
PERFORMER "Slowgate"
INDEX 00 18:04:32
INDEX 01 18:05:30
TRACK 06 AUDIO
TITLE "Crankaholic"
PERFORMER "Slowgate"
INDEX 01 23:08:02
TRACK 07 AUDIO
TITLE "Stolen Mind"
PERFORMER "Slowgate"
INDEX 01 26:22:70
TRACK 08 AUDIO
TITLE "Individual Deathmatch"
PERFORMER "Slowgate"
INDEX 00 31:40:46
INDEX 01 31:41:55
TRACK 09 AUDIO
TITLE "Smallthinker"
PERFORMER "Slowgate"
INDEX 01 36:45:13
TRACK 10 AUDIO
TITLE "Blood Sign"
PERFORMER "Slowgate"
INDEX 00 44:21:61
INDEX 01 44:22:24


FLAC part1
FLAC part2
Mp3@320

phpBB [youtube]

phpBB [youtube]


Top
 Profile E-mail  
 
 
PostPosted: 14 Aug 2013 
Хиппей (support team)
User avatar
Joined: 30 Jul 2007
Posts: 105183
Lоcаtion: Киев (Kyiv, UA)
Age: 45
Name: Andrey
:thanx:

mirror: F-Bit l Narod

_________________


Top
 Profile E-mail  
 
 
PostPosted: 14 Aug 2013 
Хиппей (support team)
User avatar
Joined: 30 Jul 2007
Posts: 105183
Lоcаtion: Киев (Kyiv, UA)
Age: 45
Name: Andrey
Groove Metal/Thrash Metal... Подобное играли в середине 90-х. Только здесь иногда встречаются чуть ли не блэковые скриминги у вокалиста.
Но довольно разноплановый альбом. Слушать начинал в некой опаской. Сейчас же в удовольствие музыка.
Есть не только среднетемповые вещи, но и весьма скоростные, что очень хорошо.
5-й трэк - здесь посерёдке есть короткая восточная мелодия. Забирать её в соответствующий топик не буду. Слишком невыразительна.
Лучший трэк пока 7-й. Очень уж колоритный такой и напоминает хитовые образчики грувастого техно-трэша в духа Пантеры или Машиного Кеда.
Слушаю дальше и затем еще раза три прогоню альбом....
8-я песня тоже хороша. Мажорно-минорная, надрывная.
Блин... а меж тем восточных мотивчиков всё больше и больше. Прямо Nile какой-то :scratch:

В общем, альбом довольно крепенький :dance: Ожидал худшего =)

5+/10

_________________


Top
 Profile E-mail  
 
 
PostPosted: 14 Aug 2013 
ТрэшЭрос
User avatar
Joined: 18 Jul 2011
Posts: 2296
Lоcаtion: Гулькевичи
Age: 43
Name: Александр
church, :thanx:
Откушаю на досуге :true: :true: :true:

_________________
Thrash no trash!!!


Top
 Profile E-mail  
 
 
PostPosted: 14 Aug 2013 
Работнечег
User avatar
Joined: 28 Aug 2007
Posts: 5387
Lоcаtion: г. Москва
Age: 29
Name: Дима
Не очень согласен по поводу грува, Андрюх) Больше назвал бы это Modern Thrash Metal, но под словом модерн понимал бы само звучание на альбоме и довольно простое построение песен, но заигрываний с альтернативой тут никаких нет... В целом стиль неважен, альбом мне понравился)


Top
 Profile E-mail  
 
 
PostPosted: 15 Aug 2013 
Хиппей (support team)
User avatar
Joined: 30 Jul 2007
Posts: 105183
Lоcаtion: Киев (Kyiv, UA)
Age: 45
Name: Andrey
Дим, ты чего??? Плотность саунда там как раз грувастая самая - настоящая грув-метол музяка.
Модерна там нет, слава кефиру :drynk:

_________________


Top
 Profile E-mail  
 
Display posts from previous:  Sort by  
Post new topic Reply to topic  [ 14 posts ] 

All times are UTC + 3 hours


Who is online

Users browsing this forum: No registered users and 1 guest


You cannot post new topics in this forum
You cannot reply to topics in this forum
You cannot edit your posts in this forum
You cannot delete your posts in this forum
You cannot post attachments in this forum

Search for:
Яндекс.Метрика
Powered by phpBB © 2000, 2002, 2005, 2007 phpBB Group