\m/ 80's metal \m/

Информационно-аналитический форум "80 см пыли" (In Search We Trust) "У нас никто никуда не спешит"
Железнодорожная биржа - RailAgent
It is currently 21 Jul 2018

All times are UTC + 3 hours

Spoiler
Chat - temporary registration for foreign users (please leave your application here)







Post new topic Reply to topic  [ 4 posts ] 
Author Message
 
PostPosted: 24 Jul 2012 
Труъ
User avatar
Joined: 05 Oct 2008
Posts: 194
Lоcаtion: Saint Petersburg
Age: 45
Name: Jesse
Image

Silent Memorial - Cosmic Handball

Year: 1998-2009
Style: Progressive Metal
Country: Switzerland (Bern, Berne)
Label: Limb Music [LMP 0908-114 CD]
Format: EAC-FLAC+CUE+LOG+ 5% RECOVERY
Size: 500 Mb


TRACK LIST:


1. Mysteries of Space 01:15
2. O'meditation 09:01
3. I: Carpet Diver 07:02
4. II: Deserted Land 08:47
5. III: Falling Apart 02:53
6. Fantasy Suit 07:07
7. Lovely Galaxy 05:23
8. Cosmic Tornado 11:25
9. Black Hole (Exit) 13:14


Image

Produced by Chris Haenggi

LINE-UP:
Chris Baertschi : All Guitars, Vocals
Jurg Friedli : All Drums and Percussion, Backing Vocals
Chris Haenggi : All Keyboards, Intro and Outro
Thomas Vikstrom: Lead and Backing Vocals
(ex-Candlemass, Brazen Abbot, 7 Days, Stormwind, Dark Illusion)


log
Exact Audio Copy V0.99 prebeta 4 from 23. January 2008

Отчёт EAC об извлечении, выполненном 29. июля 2010, 18:31

Silent Memorial / Cosmic Handball

Дисковод: ASUS CRW-5224A Adapter: 3 ID: 0

Режим чтения : Достоверность
Использование точного потока : Да
Отключение кэша аудио : Да
Использование указателей C2 : Нет

Коррекция смещения при чтении : 6
Способность читать области Lead-in и Lead-out : Нет
Заполнение пропущенных сэмплов тишиной : Да
Удаление блоков с тишиной в начале и конце : Нет
При вычислениях CRC использовались нулевые сэмплы : Да
Интерфейс : Установленный внешний ASPI-интерфейс

Выходной формат : Внутренние WAV-операции
Формат сэмплов : 44.100 Гц; 16 бит; стерео


TOC извлечённого CD

Трек | Старт | Длительность | Начальный сектор | Конечный сектор
---------------------------------------------------------------------
1 | 0:00.00 | 1:15.01 | 0 | 5625
2 | 1:15.01 | 9:01.15 | 5626 | 46215
3 | 10:16.16 | 7:02.20 | 46216 | 77885
4 | 17:18.36 | 8:47.49 | 77886 | 117459
5 | 26:06.10 | 2:53.73 | 117460 | 130507
6 | 29:00.08 | 7:07.27 | 130508 | 162559
7 | 36:07.35 | 5:23.68 | 162560 | 186852
8 | 41:31.28 | 11:25.23 | 186853 | 238250
9 | 52:56.51 | 13:14.12 | 238251 | 297812


Характеристики диапазона извлечения и сообщения об ошибках

Выбранный диапазон

Имя файла H:CdSilent Memorial - Cosmic Handball by Omarao.wav

Пиковый уровень 97.6 %
Качество диапазона 99.9 %
CRC копии 86AC6FE0
Копирование... OK

Ошибок не произошло

Конец отчёта


NAROD
password: jesse


Top
 Profile  
 
 
PostPosted: 24 Jul 2012 
Прокъмитолист
User avatar
Joined: 12 Aug 2007
Posts: 6420
Lоcаtion: Санктъ-Петербуркъ
Age: 50
Name: Олекъ
гг, так и думал, что скоро этот альбом последует. а я как раз сканы сижу делаю для него, собираюсь на ММТ запулить :crazy:

_________________
прокъметол - это музыко, от которово есть прок (ы)


Top
 Profile  
 
 
PostPosted: 25 Jul 2012 
Труъ
User avatar
Joined: 05 Oct 2008
Posts: 194
Lоcаtion: Saint Petersburg
Age: 45
Name: Jesse
Так ты же делал уже сканы с моего CD! Они у тебя должны были остаться.


Top
 Profile  
 
 
PostPosted: 25 Jul 2012 
Прокъмитолист
User avatar
Joined: 12 Aug 2007
Posts: 6420
Lоcаtion: Санктъ-Петербуркъ
Age: 50
Name: Олекъ
остались, конечно. вот ими как раз и занимаюсь (выравниваю, обрезаю и т.п.) :pardon:

_________________
прокъметол - это музыко, от которово есть прок (ы)


Top
 Profile  
 
Display posts from previous:  Sort by  
Post new topic Reply to topic  [ 4 posts ] 

All times are UTC + 3 hours


Who is online

Users browsing this forum: No registered users and 3 guests


You cannot post new topics in this forum
You cannot reply to topics in this forum
You cannot edit your posts in this forum
You cannot delete your posts in this forum
You cannot post attachments in this forum

Search for:
Яндекс.Метрика
Powered by phpBB © 2000, 2002, 2005, 2007 phpBB Group