\m/ 80's metal \m/

Информационно-аналитический форум "80 см пыли" (In Search We Trust) "У нас никто никуда не спешит"
Me For You - http://me-4u.com
It is currently 22 Nov 2018

All times are UTC + 3 hours

Spoiler
Chat - temporary registration for foreign users (please leave your application here)







Post new topic Reply to topic  [ 4 posts ] 
Author Message
 
PostPosted: 19 Jul 2012 
Генеральный thrasher
User avatar
Joined: 03 Oct 2008
Posts: 3510
Lоcаtion: Ханты-Мансийский АО
Age: 43
Name: Сергей
Image

Year:2010
Style:Thrash Metal
Country:Colombia
Audio:Flac+Cue+Log+Scans
Size:257Mb
Label:Colombia Metal Militia Records
Source:my CD

Line-Up:
Rodrigo Poblete - drums
Fredy Diaz - guitar
Pedro Cavieres - guitar
Hernaldo Tapia - bass
Juan Carlos Munos - vocals

Tracklist:
1.Intro (Caos)/ A Un Paso Del Abismo (Instrumental)
2.Carne
3.Revelacion (De Fin Del Milenio)
4.Cae La Noche (La Melodia de Los Huesos)
5.Massacra
6.Odio y Guerra (en vivo 2010)
7.Furia y Metal (en vivo 2010)
8.Dementor (medito)
9.Debes Morir
10.Cae La Noche (ensavo 2001)
11.Carne (ensavo 2001)

Cue
REM GENRE "Thrash Metal"
REM DATE 2010
REM DISCID 8B0D190B
REM COMMENT "ExactAudioCopy v0.99pb5"
PERFORMER "Sobibor"
TITLE "A Un Paso Del Abismo"
FILE "Sobibor - A Un Paso Del Abismo.flac" WAVE
TRACK 01 AUDIO
TITLE "Intro (Caos)/ A Un Paso Del Abismo (Instrumental)"
PERFORMER "Sobibor"
INDEX 01 00:00:00
TRACK 02 AUDIO
TITLE "Carne"
PERFORMER "Sobibor"
INDEX 01 04:14:29
TRACK 03 AUDIO
TITLE "Revelacion (de fin del milenio)"
PERFORMER "Sobibor"
INDEX 01 10:13:22
TRACK 04 AUDIO
TITLE "Cae La Noche (La melodia de los Huesos)"
PERFORMER "Sobibor"
INDEX 01 16:21:16
TRACK 05 AUDIO
TITLE "Massacra"
PERFORMER "Sobibor"
INDEX 01 21:19:19
TRACK 06 AUDIO
TITLE "Odio y Guerra (en vivo 2010)"
PERFORMER "Sobibor"
INDEX 01 24:11:13
TRACK 07 AUDIO
TITLE "Furia y Metal (en vivo 2010)"
PERFORMER "Sobibor"
INDEX 01 30:34:46
TRACK 08 AUDIO
TITLE "Dementor"
PERFORMER "Sobibor"
INDEX 01 35:18:57
TRACK 09 AUDIO
TITLE "Deves Morrir"
PERFORMER "Sobibor"
INDEX 01 39:45:23
TRACK 10 AUDIO
TITLE "Cae La Noche (ensavo 2001)"
PERFORMER "Sobibor"
INDEX 01 43:33:02
TRACK 11 AUDIO
TITLE "Carne (ensavo 2001)"
PERFORMER "Sobibor"
INDEX 01 50:05:07


Log
Exact Audio Copy V0.99 prebeta 5 from 4. May 2009

Отчёт EAC об извлечении, выполненном 29. августа 2011, 17:52

Sobibor / A Un Paso Del Abismo

Дисковод: TSSTcorpCDDVDW SH-S202N Adapter: 0 ID: 1

Режим чтения : Достоверность
Использование точного потока : Да
Отключение кэша аудио : Да
Использование указателей C2 : Нет

Коррекция смещения при чтении : 6
Способность читать области Lead-in и Lead-out : Нет
Заполнение пропущенных сэмплов тишиной : Да
Удаление блоков с тишиной в начале и конце : Нет
При вычислениях CRC использовались нулевые сэмплы : Да
Интерфейс : Встроенный Win32-интерфейс для Win NT/2000

Выходной формат : Пользовательский кодировщик
Выбранный битрейт : 768 kBit/s
Качество : Высокий
Добавление ID3-тэга : Нет
Утилита сжатия : C:\Program Files\Exact Audio Copy\FLAC\FLAC.EXE
Дополнительные параметры : -6 -V -T "ARTIST=%a" -T "TITLE=%t" -T "ALBUM=%g" -T "DATE=%y" -T "TRACKNUMBER=%n" -T "GENRE=%m" -T "COMMENT=%e" %s -o %d


TOC извлечённого CD

Трек | Старт | Длительность | Начальный сектор | Конечный сектор
---------------------------------------------------------------------
1 | 0:00.00 | 4:14.29 | 0 | 19078
2 | 4:14.29 | 5:58.68 | 19079 | 45996
3 | 10:13.22 | 6:07.69 | 45997 | 73590
4 | 16:21.16 | 4:58.03 | 73591 | 95943
5 | 21:19.19 | 2:51.69 | 95944 | 108837
6 | 24:11.13 | 6:23.33 | 108838 | 137595
7 | 30:34.46 | 4:44.11 | 137596 | 158906
8 | 35:18.57 | 4:26.41 | 158907 | 178897
9 | 39:45.23 | 3:47.54 | 178898 | 195976
10 | 43:33.02 | 6:32.05 | 195977 | 225381
11 | 50:05.07 | 5:47.73 | 225382 | 251479


Характеристики диапазона извлечения и сообщения об ошибках

Выбранный диапазон

Имя файла E:\Лоси\S\Sobibor - A Un Paso Del Abismo.wav

Пиковый уровень 100.0 %
Качество диапазона 100.0 %
CRC копии DBA67E3C
Копирование... OK

Ошибок не произошло


AccurateRip: сводка

Трек 1 нет в базе данных
Трек 2 нет в базе данных
Трек 3 нет в базе данных
Трек 4 нет в базе данных
Трек 5 нет в базе данных
Трек 6 нет в базе данных
Трек 7 нет в базе данных
Трек 8 нет в базе данных
Трек 9 нет в базе данных
Трек 10 нет в базе данных
Трек 11 нет в базе данных

Ни одного трека нет в базе AccurateRip

Конец отчёта


A Un Paso Del Abismo


Top
 Profile  
 
 
PostPosted: 19 Jul 2012 
Хиппей (support team)
User avatar
Joined: 30 Jul 2007
Posts: 108264
Lоcаtion: Киев (Kyiv, UA)
Age: 45
Name: Andrey
Хорошее название у группы, если прочесть наоборот :thanx:

_________________


Top
 Profile E-mail  
 
 
PostPosted: 21 Aug 2012 
Alive Again
User avatar
Joined: 17 Dec 2008
Posts: 4744
Lоcаtion: Курск Воронеж Оскол
Age: 44
Name: Дмитрий
:thanx: :true: :crazy:


Top
 Profile E-mail  
 
 
PostPosted: 21 Aug 2012 
ТрэшЭрос
User avatar
Joined: 18 Jul 2011
Posts: 2300
Lоcаtion: Гулькевичи
Age: 43
Name: Александр
Айа шукаю "Furia y metal" (2006)... :oops:

_________________
Thrash no trash!!!


Top
 Profile E-mail  
 
Display posts from previous:  Sort by  
Post new topic Reply to topic  [ 4 posts ] 

All times are UTC + 3 hours


Who is online

Users browsing this forum: No registered users and 1 guest


You cannot post new topics in this forum
You cannot reply to topics in this forum
You cannot edit your posts in this forum
You cannot delete your posts in this forum
You cannot post attachments in this forum

Search for:
Яндекс.Метрика
Powered by phpBB © 2000, 2002, 2005, 2007 phpBB Group