\m/ 80's metal \m/

Информационно-аналитический форум "80 см пыли" (In Search We Trust) "У нас никто никуда не спешит"
Me For You - http://me-4u.com
It is currently 24 Sep 2018

All times are UTC + 3 hours

Spoiler
Chat - temporary registration for foreign users (please leave your application here)







Post new topic Reply to topic  [ 2 posts ] 
Author Message
 
PostPosted: 02 Jun 2012 
Хиппей (support team)
User avatar
Joined: 30 Jul 2007
Posts: 106508
Lоcаtion: Киев (Kyiv, UA)
Age: 45
Name: Andrey
Shake City - 2009 - Shake City [flac tracks]

Image

Genre: Hard Rock/Glam
Location: USA
Format: flac (tracks) + cue +log + scans
Size: 356 Mb


Line-up:
Adam Shore - lead vocals
Don E. Sachs - guitar, vocals
Michael Blair - guitar
Ray Bailey - bass, vocals
Jaycee Cary - drums

    1. One Good Reason - 03:33
    2. Hot Love - 03:41
    3. Betty Blue - 03:49
    4. Get It While It’s Hot - 04:07
    5. Submarine - 04:49
    6. Little Lianne - 03:49
    7. Lust & Love - 03:28
    8. Psychedelic Ride - 04:25
    9. Sweet Dreams - 03:40
    10. Can’t Get Over You - 04:36
    11. Game of War (Written by Jani Lane) - 03:30
    12. Bad On Wheels - 03:13

    TPT: 46:45

Ссылка сейчас будет. Просили залить... Сам еще не слушал :vic:

Updt. Послушал - хорошо :meloman:

7/10

MultiUp l Narod

Стырено с http://rockhard-lossless.com

info
Quote:
В 2009 году лейбл Eonian Records, занимающийся переизданием хард-рок преимущественно конца 80-х — начала 90-х годов решил выпустить единственный альбом Shake City, записанный в 1992 году.
Shake City берет свои истоки в Warrant, где солист Адам Шор начал свою музыкальную карьеру. По мере того, как группа стали раскручиваться, Адам Шор был признан персоной нон-грата и заменен на Джейни Лэйна. После ухода из ставших впоследствии очень известными Warrant, Адам был взят в Shake City своим другом гитаристом Доном И. Сэшэсом. Имея в своей обойме классных музыкантов, мощный вокал Шора, задиристые хард-роковые хиты и хороший имидж, группа стала набирать известность в Лос-Анджелесе, играя в основном в местных клубах. В истории группы памятными можно назвать выступления с такими звездами глэм и хард-рока как Kiss, Swingin’ Thing, Helter Skelter, Cherry Street, Taz, Roxanne, Pair-a-Dice, Warrant, Britny Fox, и Wikked Gypsy. Часть песен, написанных в то время, были сочинены в соавторстве с Томми Тайером (Black N Blue), Эриком Тернером и Джейни Лэйном (Warrant).

log
Exact Audio Copy V1.0 beta 3 from 29. August 2011

EAC extraction logfile from 28. February 2012, 8:42

Shake City / Shake City

Used drive : HL-DT-STDVD+-RW GU40N Adapter: 0 ID: 1

Read mode : Secure
Utilize accurate stream : Yes
Defeat audio cache : Yes
Make use of C2 pointers : No

Read offset correction : 103
Overread into Lead-In and Lead-Out : No
Fill up missing offset samples with silence : Yes
Delete leading and trailing silent blocks : No
Null samples used in CRC calculations : Yes
Used interface : Native Win32 interface for Win NT & 2000
Gap handling : Appended to previous track

Used output format : User Defined Encoder
Selected bitrate : 128 kBit/s
Quality : High
Add ID3 tag : No
Command line compressor : C:\Program Files\Exact Audio Copy\Flac\flac.exe
Additional command line options : --best --picture="C:\FLAC\folder.jpg" -P 4096 -V -T "ARTIST=%artist%" -T "TITLE=%title%" -T "ALBUM=%albumtitle%" -T "TRACKNUMBER=%tracknr%" %source% -o %dest%


TOC of the extracted CD

Track | Start | Length | Start sector | End sector
---------------------------------------------------------
1 | 0:00.00 | 3:33.02 | 0 | 15976
2 | 3:33.02 | 3:41.71 | 15977 | 32622
3 | 7:14.73 | 3:49.41 | 32623 | 49838
4 | 11:04.39 | 4:07.13 | 49839 | 68376
5 | 15:11.52 | 4:49.14 | 68377 | 90065
6 | 20:00.66 | 3:49.36 | 90066 | 107276
7 | 23:50.27 | 3:28.14 | 107277 | 122890
8 | 27:18.41 | 4:25.47 | 122891 | 142812
9 | 31:44.13 | 3:40.54 | 142813 | 159366
10 | 35:24.67 | 4:36.67 | 159367 | 180133
11 | 40:01.59 | 3:30.01 | 180134 | 195884
12 | 43:31.60 | 3:13.53 | 195885 | 210412


Track 1

Filename C:\FLAC\Shake City\Shake City\01 - One Good Reason.wav

Pre-gap length 0:00:02.00

Peak level 100.0 %
Extraction speed 1.1 X
Track quality 100.0 %
Test CRC 709FEA6B
Copy CRC 709FEA6B
Track not present in AccurateRip database
Copy OK

Track 2

Filename C:\FLAC\Shake City\Shake City\02 - Hot Love.wav

Peak level 100.0 %
Extraction speed 1.3 X
Track quality 100.0 %
Test CRC 550AF326
Copy CRC 550AF326
Track not present in AccurateRip database
Copy OK

Track 3

Filename C:\FLAC\Shake City\Shake City\03 - Betty Blue.wav

Peak level 100.0 %
Extraction speed 1.4 X
Track quality 100.0 %
Test CRC 0D61A255
Copy CRC 0D61A255
Track not present in AccurateRip database
Copy OK

Track 4

Filename C:\FLAC\Shake City\Shake City\04 - Get It While It's Hot.wav

Peak level 100.0 %
Extraction speed 1.5 X
Track quality 100.0 %
Test CRC AF6CE266
Copy CRC AF6CE266
Track not present in AccurateRip database
Copy OK

Track 5

Filename C:\FLAC\Shake City\Shake City\05 - Submarine.wav

Peak level 100.0 %
Extraction speed 1.5 X
Track quality 99.9 %
Test CRC AD61CEC3
Copy CRC AD61CEC3
Track not present in AccurateRip database
Copy OK

Track 6

Filename C:\FLAC\Shake City\Shake City\06 - Little Lianne.wav

Peak level 100.0 %
Extraction speed 1.7 X
Track quality 100.0 %
Test CRC E0CF2718
Copy CRC E0CF2718
Track not present in AccurateRip database
Copy OK

Track 7

Filename C:\FLAC\Shake City\Shake City\07 - Lust & Love.wav

Peak level 100.0 %
Extraction speed 1.8 X
Track quality 100.0 %
Test CRC 14C0771F
Copy CRC 14C0771F
Track not present in AccurateRip database
Copy OK

Track 8

Filename C:\FLAC\Shake City\Shake City\08 - Psychedelic Ride.wav

Peak level 100.0 %
Extraction speed 1.9 X
Track quality 100.0 %
Test CRC 83B5A9E7
Copy CRC 83B5A9E7
Track not present in AccurateRip database
Copy OK

Track 9

Filename C:\FLAC\Shake City\Shake City\09 - Sweet Dreams.wav

Peak level 100.0 %
Extraction speed 2.0 X
Track quality 100.0 %
Test CRC 16BAC84D
Copy CRC 16BAC84D
Track not present in AccurateRip database
Copy OK

Track 10

Filename C:\FLAC\Shake City\Shake City\10 - Can't Get Over You.wav

Peak level 98.6 %
Extraction speed 1.9 X
Track quality 99.9 %
Test CRC 09938873
Copy CRC 09938873
Track not present in AccurateRip database
Copy OK

Track 11

Filename C:\FLAC\Shake City\Shake City\11 - Game Of War.wav

Peak level 100.0 %
Extraction speed 2.1 X
Track quality 100.0 %
Test CRC ABC9D7E3
Copy CRC ABC9D7E3
Track not present in AccurateRip database
Copy OK

Track 12

Filename C:\FLAC\Shake City\Shake City\12 - Bad On Wheels.wav

Peak level 100.0 %
Extraction speed 2.2 X
Track quality 100.0 %
Test CRC 6781B8D4
Copy CRC 6781B8D4
Track not present in AccurateRip database
Copy OK


None of the tracks are present in the AccurateRip database

No errors occurred

End of status report

==== Log checksum 829119DBDCA0126214A5EE3E2B374C8D106B81DAD67FE3A46932773256D343C5 ====

cue
REM DISCID 800AF50C
REM COMMENT "ExactAudioCopy v1.0b3"
PERFORMER "Shake City"
TITLE "Shake City"
FILE "Shake City\Shake City\01 - One Good Reason.wav" WAVE
TRACK 01 AUDIO
TITLE "One Good Reason"
PERFORMER "Shake City"
ISRC USR6Y0900049
INDEX 01 00:00:00
FILE "Shake City\Shake City\02 - Hot Love.wav" WAVE
TRACK 02 AUDIO
TITLE "Hot Love"
PERFORMER "Shake City"
ISRC USR6Y0900050
INDEX 01 00:00:00
FILE "Shake City\Shake City\03 - Betty Blue.wav" WAVE
TRACK 03 AUDIO
TITLE "Betty Blue"
PERFORMER "Shake City"
ISRC USR6Y0900051
INDEX 01 00:00:00
FILE "Shake City\Shake City\04 - Get It While It's Hot.wav" WAVE
TRACK 04 AUDIO
TITLE "Get It While It's Hot"
PERFORMER "Shake City"
ISRC USR6Y0900052
INDEX 01 00:00:00
FILE "Shake City\Shake City\05 - Submarine.wav" WAVE
TRACK 05 AUDIO
TITLE "Submarine"
PERFORMER "Shake City"
ISRC USR6Y0900053
INDEX 01 00:00:00
FILE "Shake City\Shake City\06 - Little Lianne.wav" WAVE
TRACK 06 AUDIO
TITLE "Little Lianne"
PERFORMER "Shake City"
ISRC USR6Y0900054
INDEX 01 00:00:00
FILE "Shake City\Shake City\07 - Lust & Love.wav" WAVE
TRACK 07 AUDIO
TITLE "Lust & Love"
PERFORMER "Shake City"
ISRC USR6Y0900055
INDEX 01 00:00:00
FILE "Shake City\Shake City\08 - Psychedelic Ride.wav" WAVE
TRACK 08 AUDIO
TITLE "Psychedelic Ride"
PERFORMER "Shake City"
ISRC USR6Y0900056
INDEX 01 00:00:00
FILE "Shake City\Shake City\09 - Sweet Dreams.wav" WAVE
TRACK 09 AUDIO
TITLE "Sweet Dreams"
PERFORMER "Shake City"
ISRC USR6Y0900057
INDEX 01 00:00:00
FILE "Shake City\Shake City\10 - Can't Get Over You.wav" WAVE
TRACK 10 AUDIO
TITLE "Can't Get Over You"
PERFORMER "Shake City"
ISRC USR6Y0900058
INDEX 01 00:00:00
FILE "Shake City\Shake City\11 - Game Of War.wav" WAVE
TRACK 11 AUDIO
TITLE "Game Of War"
PERFORMER "Shake City"
ISRC USR6Y0900059
INDEX 01 00:00:00
FILE "Shake City\Shake City\12 - Bad On Wheels.wav" WAVE
TRACK 12 AUDIO
TITLE "Bad On Wheels"
PERFORMER "Shake City"
ISRC USR6Y0900060
INDEX 01 00:00:00

spectrum
Image

_________________


Top
 Profile E-mail  
 
 
PostPosted: 03 Jun 2012 
Персональный статус
User avatar
Joined: 02 Jul 2009
Posts: 293
Name: Александр
Благодрствую Андрей !!! :thanx: :thanx: :thanx: :thanx: :true:


Top
 Profile E-mail  
 
Display posts from previous:  Sort by  
Post new topic Reply to topic  [ 2 posts ] 

All times are UTC + 3 hours


Who is online

Users browsing this forum: No registered users and 1 guest


You cannot post new topics in this forum
You cannot reply to topics in this forum
You cannot edit your posts in this forum
You cannot delete your posts in this forum
You cannot post attachments in this forum

Search for:
Яндекс.Метрика
Powered by phpBB © 2000, 2002, 2005, 2007 phpBB Group