\m/ 80's metal \m/

Информационно-аналитический форум "80 см пыли" (In Search We Trust) "У нас никто никуда не спешит"
Железнодорожная биржа - RailAgent
It is currently 22 Jul 2018

All times are UTC + 3 hours

Spoiler
Chat - temporary registration for foreign users (please leave your application here)







Post new topic Reply to topic  [ 8 posts ] 
Author Message
 
PostPosted: 13 Mar 2012 
Прокъмитолист
User avatar
Joined: 12 Aug 2007
Posts: 6421
Lоcаtion: Санктъ-Петербуркъ
Age: 50
Name: Олекъ
Simple Aggression [1996] Gravity
Massacre Records [MASS CD 088]

Image

Genre: groove/progressive/thrash metal
Country: USA
Contents: flac/cue/log/covers
Size: 355 MB

Tracklist:
01. In My Nature
02. Art Of Discipline
03. Swimming In Quicksand
04. Eternity: Suite
05. Hated
06. Devotion
07. Release
08. Demon Smile
09. Lifeguard
10. Why?

Playtime: 49:54

Lineup:
Eric Johns - vocals
Darrin McKinney - guitars and backing vocals
James Carr - guitars and backing vocals
Dave Swart - bass
Kenneth Soward - drums
******
Greg Hupp - additional backing vocals

Review
This band has received tremendous critical acclaim on their very heavy 1993 cd "FORMULATIONS IN BLACK". The cd received coverage in most all national and regional magazines and the band's video for the title track received numerous plays on MTV Europe.

"GRAVITY" shows the band has matured as songwriters with a vast array of very original tracks. It is very hard to label the band's material due to the fact of the diverse tastes amongst the band. The band members sight influences from Megadeth to Weather Report, Ozzy, Zack Wylde, Phantom Of The Opera and Alice In Chains. The material on this cd has great depth and in many cases it will take more than one listen "to get the picture".

This cd features new vocalist/lyricist Eric Johns who seems to like to write about the mysteries of life and gothic themes. He was formerly the lead vocalist for the group FULL CIRCLE and has appeared in "Jesus Christ Superstar". Eric really shows some great work on tracks such as Eternity: Suite, Why?, and In My Nature.

The other band members are all the same as from Formulations; Kenny Soward - drums, the dynamic duo of Darrin McKinney and James Carr on guitars and bassist Dave Swart. Jeff Higgins, who worked on the last Lethal, Full Circle, Formulations In Black and Chastain cds, acted as producer/engineer on this release.

With the band being based out of the Cincinnati/Northern Kentucky area, and not living in Seattle, LA or New York, SIMPLE AGGRESSION is not affected that much by trends and the easiest way to describe this release is "DARK, HEAVY, INTELLIGENT, PROGRESSIVE AND INTENSE ROCK AND ROLL".

Leviathan Records

EAC log
Code:
EAC extraction logfile from 23. February 2009, 15:16 for CD
Simple Aggression / Gravity

Used drive  : _NEC    DVD_RW ND-3500AG   Adapter: 0  ID: 2
Read mode   : Secure with NO C2, accurate stream, disable cache
Read offset correction : 48
Overread into Lead-In and Lead-Out : No

Used output format : Internal WAV Routines
                     44.100 Hz; 16 Bit; Stereo

Other options      :
    Fill up missing offset samples with silence : Yes
    Delete leading and trailing silent blocks : No
    Installed external ASPI interface


Range status and errors
Selected range
     Filename E:\spiralarch\Simple Aggression - Gravity.wav

     Peak level 99.5 %
     Range quality 99.9 %
     CRC 121B5C72
     Copy OK

No errors occured

End of status report

cue
REM GENRE Metal
REM DATE 1996
REM DISCID 8D0BB20A
REM COMMENT "ExactAudioCopy v0.95b4"
PERFORMER "Simple Aggression"
TITLE "Gravity"
FILE "Simple Aggression - Gravity.wav" WAVE
TRACK 01 AUDIO
TITLE "In My Nature"
PERFORMER "Simple Aggression"
FLAGS DCP
INDEX 01 00:00:00
TRACK 02 AUDIO
TITLE "Art Of Discipline"
PERFORMER "Simple Aggression"
FLAGS DCP
INDEX 01 05:16:17
TRACK 03 AUDIO
TITLE "Swimming In Quicksand"
PERFORMER "Simple Aggression"
FLAGS DCP
INDEX 01 10:12:16
TRACK 04 AUDIO
TITLE "Eternity: Suite"
PERFORMER "Simple Aggression"
FLAGS DCP
INDEX 01 14:09:02
TRACK 05 AUDIO
TITLE "Hated"
PERFORMER "Simple Aggression"
FLAGS DCP
INDEX 01 21:04:10
TRACK 06 AUDIO
TITLE "Devotion"
PERFORMER "Simple Aggression"
FLAGS DCP
INDEX 01 25:10:53
TRACK 07 AUDIO
TITLE "Release"
PERFORMER "Simple Aggression"
FLAGS DCP
INDEX 01 29:40:61
TRACK 08 AUDIO
TITLE "Demon Smile"
PERFORMER "Simple Aggression"
FLAGS DCP
INDEX 01 34:44:67
TRACK 09 AUDIO
TITLE "Lifeguard"
PERFORMER "Simple Aggression"
FLAGS DCP
INDEX 01 39:26:72
TRACK 10 AUDIO
TITLE "Why?"
PERFORMER "Simple Aggression"
FLAGS DCP
INDEX 01 43:17:40

spectrum
Image


Дубль моего релиза с ММТ по просьбе Сергея thorbeorn

_________________
прокъметол - это музыко, от которово есть прок (ы)


Top
 Profile  
 
 
PostPosted: 13 Mar 2012 
Генеральный thrasher
User avatar
Joined: 03 Oct 2008
Posts: 3408
Lоcаtion: Ханты-Мансийский АО
Age: 43
Name: Сергей
И здесь огромное спасибо!!! :true: :thanx:


Top
 Profile  
 
 
PostPosted: 13 Mar 2012 
Хиппей (support team)
User avatar
Joined: 30 Jul 2007
Posts: 105197
Lоcаtion: Киев (Kyiv, UA)
Age: 45
Name: Andrey
Грувастный прогтрэш?
Спасибо :thanx:

mirror: Speedy l Narod

_________________


Top
 Profile E-mail  
 
 
PostPosted: 18 Mar 2012 
ТрэшЭрос
User avatar
Joined: 18 Jul 2011
Posts: 2296
Lоcаtion: Гулькевичи
Age: 43
Name: Александр
Товарищи, :thanx: , а насколько сей альбомчег отличается от предыдущего? И как повлияла на звук смена вокалёра? :oops:

_________________
Thrash no trash!!!


Top
 Profile E-mail  
 
 
PostPosted: 18 Mar 2012 
Хиппей (support team)
User avatar
Joined: 30 Jul 2007
Posts: 105197
Lоcаtion: Киев (Kyiv, UA)
Age: 45
Name: Andrey
А, я, например, ешо и не слушал ваще эту группу :dance: Поэтому ничо не скажу :pardon:

_________________


Top
 Profile E-mail  
 
 
PostPosted: 18 Mar 2012 
Прокъмитолист
User avatar
Joined: 12 Aug 2007
Posts: 6421
Lоcаtion: Санктъ-Петербуркъ
Age: 50
Name: Олекъ
музыка изменилась, насколько я помню. но тут нужно слушать - вкусы ведь у всех разные. на ютубе вещей с этого альбома не нашел, так что проще скачать будет :pardon:

_________________
прокъметол - это музыко, от которово есть прок (ы)


Top
 Profile  
 
 
PostPosted: 19 Apr 2012 
Персональный статус
Joined: 19 Jul 2010
Posts: 282
Lоcаtion: Москва
Name: Вадим
Этот альбом попроще, на мой взгляд.


Top
 Profile E-mail  
 
 
PostPosted: 20 Apr 2012 
Хиппей (support team)
User avatar
Joined: 30 Jul 2007
Posts: 105197
Lоcаtion: Киев (Kyiv, UA)
Age: 45
Name: Andrey
Quote:
Файл не найден. Он был удален или вообще никогда не существовал.

Едрить... :fingal: Спидишарик совсем не радует :esel:
Спустя месяц удаляются некоторые архивы... :shok: :vic: Пора валить оттуда :ping:
Хм, или там ограничение на объем. Что-то у меня больше 110 архивов не пролазит. Новый заливаю - один из старых удаляется... :scratch: И вот остаются только 110 штук.

_________________


Top
 Profile E-mail  
 
Display posts from previous:  Sort by  
Post new topic Reply to topic  [ 8 posts ] 

All times are UTC + 3 hours


Who is online

Users browsing this forum: No registered users and 2 guests


You cannot post new topics in this forum
You cannot reply to topics in this forum
You cannot edit your posts in this forum
You cannot delete your posts in this forum
You cannot post attachments in this forum

Search for:
Яндекс.Метрика
Powered by phpBB © 2000, 2002, 2005, 2007 phpBB Group