\m/ 80's metal \m/

Информационно-аналитический форум "80 см пыли" (In Search We Trust) "У нас никто никуда не спешит"
Me For You - http://me-4u.com
It is currently 20 Nov 2018

All times are UTC + 3 hours

Spoiler
Chat - temporary registration for foreign users (please leave your application here)







Post new topic Reply to topic  [ 8 posts ] 
Author Message
 
PostPosted: 13 Mar 2012 
Прокъмитолист
User avatar
Joined: 12 Aug 2007
Posts: 6504
Lоcаtion: Санктъ-Петербуркъ
Age: 51
Name: Олекъ
Simple Aggression [1993] Formulations In Black
Leviathan Records [IRS CD 993.005]

Image

Genre: thrash metal
Country: USA
Contents: flac/cue/log/covers
Size: 417 MB

Tracklist:
01. Quiddity
02. Formulations In Black
03. Lost
04. Psychoradius
05. Sea Of Eternity
06. Of winter
07. Simple Aggression
08. Frenzy
09. Madd
10. Spiritual Voices
11. Jedi Mind Trick
12. Share Your Pain

Playtime: 57:24

Lineup:
Doug Carter - vocals
Darrin McKinney - guitars and backing vocals
James Carr - guitars and backing vocals
Dave Swart - bass
Kenny Soward - drums

Review
It's nice to have albums that take you by surprise and this one certainly did. This album is a great mix of thrash metal and Faith No More's "The Real Thing" album. Even the singer sounds like Mike Patton in some places, which definitely ain't a bad thing. Album does great on balancing between funk metal and thrash.

If I'd have to pick two greatest tracks from the album, they would certainly be "Of Winter" and "Simple Aggression". "Of Winter" is another metal ballad for you heavy ballad lovers and it starts beautifully and adds some distortion before the end. "Simple Aggression" is all out thrash song with great headbanging riffs and thundering double bass drumming. Other songs on the album are not weak either but those two are the ones that stick into mind after first listening time.

If you're into FNM's "The Real Thing" and think that they should have kept more metal edge to their music and in this case thrash edge, you'll dig this album.

Encyclopaedia Metallum

EAC log
Code:
EAC extraction logfile from 13. March 2008, 12:31 for CD
Simple Aggression / Formulations In Black

Used drive  : PLEXTOR CD-R   PX-W5224A   Adapter: 0  ID: 2
Read mode   : Secure with NO C2, accurate stream, disable cache
Read offset correction : 30
Overread into Lead-In and Lead-Out : No

Used output format : G:\Exact Audio Copy\FLAC.EXE   (User Defined Encoder)
                     32 kBit/s
                     Additional command line options : -6 -V %s

Other options      :
    Fill up missing offset samples with silence : Yes
    Delete leading and trailing silent blocks : No
    Native Win32 interface for Win NT & 2000


Range status and errors
Selected range
   Filename G:\Exact Audio Copy\CDImage.flac.wav

   Peak level 100.0 %
   Range quality 100.0 %
   CRC A4293005
   Copy OK

No errors occured

End of status report

Cue
PERFORMER "Simple Aggression"
TITLE "Formulations In Black"
FILE "CDImage.flac" WAVE
TRACK 01 AUDIO
TITLE "Quiddity"
PERFORMER "Simple Aggression"
INDEX 01 00:00:00
TRACK 02 AUDIO
TITLE "Formulations In Black"
PERFORMER "Simple Aggression"
INDEX 00 05:35:32
INDEX 01 05:36:02
TRACK 03 AUDIO
TITLE "Lost"
PERFORMER "Simple Aggression"
INDEX 00 10:12:07
INDEX 01 10:12:67
TRACK 04 AUDIO
TITLE "Psychoradius"
PERFORMER "Simple Aggression"
INDEX 00 13:11:46
INDEX 01 13:12:32
TRACK 05 AUDIO
TITLE "Sea Of Eternity"
PERFORMER "Simple Aggression"
INDEX 00 17:15:56
INDEX 01 17:16:37
TRACK 06 AUDIO
TITLE "Of Winter"
PERFORMER "Simple Aggression"
INDEX 00 21:27:41
INDEX 01 21:28:07
TRACK 07 AUDIO
TITLE "Simple Aggression"
PERFORMER "Simple Aggression"
INDEX 00 28:59:58
INDEX 01 29:00:30
TRACK 08 AUDIO
TITLE "Frenzy"
PERFORMER "Simple Aggression"
INDEX 00 35:14:26
INDEX 01 35:15:07
TRACK 09 AUDIO
TITLE "Madd"
PERFORMER "Simple Aggression"
INDEX 00 40:14:74
INDEX 01 40:15:40
TRACK 10 AUDIO
TITLE "Spiritual Voices"
PERFORMER "Simple Aggression"
INDEX 00 43:16:57
INDEX 01 43:17:47
TRACK 11 AUDIO
TITLE "Jedi Mind Trick"
PERFORMER "Simple Aggression"
INDEX 00 48:16:11
INDEX 01 48:16:50
TRACK 12 AUDIO
TITLE "Share Your Pain"
PERFORMER "Simple Aggression"
INDEX 00 53:11:04
INDEX 01 53:11:50

Spectrum
Image


Залил рип Stefan1971HH с ММТ по просьбе Сергея thorbeorn :losik:

_________________
прокъметол - это музыко, от которово есть прок (ы)


Top
 Profile  
 
 
PostPosted: 13 Mar 2012 
Генеральный thrasher
User avatar
Joined: 03 Oct 2008
Posts: 3507
Lоcаtion: Ханты-Мансийский АО
Age: 43
Name: Сергей
Олег,СПАСИБИЩЕ!!! :true: :thanx:


Top
 Profile  
 
 
PostPosted: 13 Mar 2012 
Хиппей (support team)
User avatar
Joined: 30 Jul 2007
Posts: 108205
Lоcаtion: Киев (Kyiv, UA)
Age: 45
Name: Andrey
:thanx:

mirror: Speedy l Narod

_________________


Top
 Profile E-mail  
 
 
PostPosted: 18 Mar 2012 
ТрэшЭрос
User avatar
Joined: 18 Jul 2011
Posts: 2300
Lоcаtion: Гулькевичи
Age: 43
Name: Александр
spiralarch, :thanx: и :true: :true: :true:

_________________
Thrash no trash!!!


Top
 Profile E-mail  
 
 
PostPosted: 23 Mar 2012 
Хиппей (support team)
User avatar
Joined: 30 Jul 2007
Posts: 108205
Lоcаtion: Киев (Kyiv, UA)
Age: 45
Name: Andrey
Ой, как же мне понравился этот альбом :kz:
Спасибо еще раз огромное и всё такое.
Слушаю уже несколько часов подряд. Поставлю на ночь "настаиваться". Завтра в наушниках оценю и чота отпишу кратенько :meloman:

_________________


Top
 Profile E-mail  
 
 
PostPosted: 23 Mar 2012 
адын фелософъ прокметолу
User avatar
Joined: 22 Oct 2009
Posts: 2711
Lоcаtion: Сочи
Age: 41
Name: Сергей
вроде бы группа реорганизовалась и даёт концерты
Может когда нибудь увидим в концертном исполнении Of winter

_________________
А теперь ... клоунов и стриптизёрш!


Top
 Profile E-mail  
 
 
PostPosted: 24 Mar 2012 
Персональный статус
User avatar
Joined: 22 Oct 2011
Posts: 352
Lоcаtion: Moscow
Age: 59
Name: Серёжа
spiralarch
:thanx:


Top
 Profile E-mail  
 
 
PostPosted: 24 Mar 2012 
Хиппей (support team)
User avatar
Joined: 30 Jul 2007
Posts: 108205
Lоcаtion: Киев (Kyiv, UA)
Age: 45
Name: Andrey
В общем, хотел по альбому подробно, попесенно всё расписать, но времени не хватает щас.
Итак, кратко. По стилю.
Это не традиционный трэш-мэтал, а скорее Techno Funk Metal с трэшевым уклоном.
Но! Альбом меня действительно очень зацепил своей мелодичностью, гармоничностью и уместностью всех трэков на нём.
Тем, кому не нравится Thrash Metal с таким вот отходом от канонов жанра, этот альбом слушать не рекомендовано.
Кто любит веселость и разнообразие в музыке (в разумных пределах), тому и релиз понравится.
С кем можно сравнить группу?
А вот ни с кем :shok: Монстры жанра, типа Napalm, Suicidal Tendencies, Anthrax, Bitter End, Ludichrist etc - всё не то, хоть и иногда схоже звучат.
И это ж и хорошо, едрить :kz:

8/10

Короче, альбом из серии - или любить и обожать, или начать слушать, сблевануть в рукав и прополоскать горло :pardon:

phpBB [youtube]
phpBB [youtube]

_________________


Top
 Profile E-mail  
 
Display posts from previous:  Sort by  
Post new topic Reply to topic  [ 8 posts ] 

All times are UTC + 3 hours


Who is online

Users browsing this forum: No registered users and 2 guests


You cannot post new topics in this forum
You cannot reply to topics in this forum
You cannot edit your posts in this forum
You cannot delete your posts in this forum
You cannot post attachments in this forum

Search for:
Яндекс.Метрика
Powered by phpBB © 2000, 2002, 2005, 2007 phpBB Group