\m/ 80's metal \m/

Информационно-аналитический форум "80 см пыли" (In Search We Trust) "У нас никто никуда не спешит"
Me For You - http://me-4u.com
It is currently 25 Sep 2018

All times are UTC + 3 hours

Spoiler
Chat - temporary registration for foreign users (please leave your application here)







Post new topic Reply to topic  [ 11 posts ] 
Author Message
 
PostPosted: 25 Dec 2011 
Пионэръ
Joined: 27 Feb 2009
Posts: 39
Lоcаtion: Украина Тернополь
Age: 40
Name: Андрей
Secrecy-91 ''Raging Romance''

1. Observer From Above 04:47
2. Embrace (The Greatest Gift, Part 1) 02:02
3. Times Of Tears 04:23
4. Mourning 02:42
5. Guitarian 01:12
6. This World's Wisdom 05:28
7. The One To Adore (bonus track) 03:54
8. No? No! 04:45
9. All Effort's Aim (The Greatest Gift, Part 2) 05:15
10. Through Clouds Of Doubt 02:27
11. To Mind's Borderline (This World's Wisdom Reprise) 00:29
12. Ideology 04:21
13. Masquerade 04:24

Time:46:09

Progressive Metal

любой битрейд
http://www.metal-archives.com/images/4/0/1/4/4014.jpg


Top
 Profile E-mail  
 
 
PostPosted: 25 Dec 2011 
Power Metal Maniac
User avatar
Joined: 09 Aug 2008
Posts: 6305
Lоcаtion: Москва
Age: 40
Name: Егор
Шо, неужели нигде не находится???
У меня болванка где-то есть, могу срипать как-нибудь)) С любым битрейтом, хыть лося.

_________________
Long Live Metal!


Top
 Profile  
 
 
PostPosted: 25 Dec 2011 
Power Metal Maniac
User avatar
Joined: 09 Aug 2008
Posts: 6305
Lоcаtion: Москва
Age: 40
Name: Егор
Здесь MP3-320 есть: http://rutracker.org/forum/viewtopic.php?t=2812694
:umnik:

_________________
Long Live Metal!


Top
 Profile  
 
 
PostPosted: 25 Dec 2011 
адын фелософъ прокметолу
User avatar
Joined: 22 Oct 2009
Posts: 2689
Lоcаtion: Сочи
Age: 41
Name: Сергей
Secrecy - Raging Romance (1991)
Image
1. Observer From Above 04:47
2. Embrace (The Greatest Gift, Part 1) 02:02
3. Times Of Tears 04:23
4. Mourning 02:42
5. Guitarian 01:12
6. This World's Wisdom 05:28
7. The One To Adore (bonus track) 03:54
8. No? No! 04:45
9. All Effort's Aim (The Greatest Gift, Part 2) 05:15
10. Through Clouds Of Doubt 02:27
11. To Mind's Borderline (This World's Wisdom Reprise) 00:29
12. Ideology 04:21
13. Masquerade 04:24
320kbps
http://www.megaupload.com/?d=ENIV2G6X
у меня где то на винте была полная дискография группы :scratch:

_________________
А теперь ... клоунов и стриптизёрш!


Last edited by wizard12 on 25 Dec 2011, edited 1 time in total.

Top
 Profile E-mail  
 
 
PostPosted: 25 Dec 2011 
Хиппей (support team)
User avatar
Joined: 30 Jul 2007
Posts: 106553
Lоcаtion: Киев (Kyiv, UA)
Age: 45
Name: Andrey
Егор, лосика зафигачить смогёшь? :dance:


к lizzy borden

Андрюх, Гуглём разучился пользоваца? :vic:

_________________


Top
 Profile E-mail  
 
 
PostPosted: 25 Dec 2011 
Хиппей (support team)
User avatar
Joined: 30 Jul 2007
Posts: 106553
Lоcаtion: Киев (Kyiv, UA)
Age: 45
Name: Andrey
lizzy borden

Запрос выполнен?
И еще. пока устное предупреждение. Чего запрос так коряво оформлен? :fingal:

wizard12

Серёж, спасибо за ссылку :thanx:

_________________


Top
 Profile E-mail  
 
 
PostPosted: 25 Dec 2011 
Прокъмитолист
User avatar
Joined: 12 Aug 2007
Posts: 6473
Lоcаtion: Санктъ-Петербуркъ
Age: 50
Name: Олекъ
лосик на ммт давно есть. наверняка и в других местах тоже ;)

_________________
прокъметол - это музыко, от которово есть прок (ы)


Top
 Profile  
 
 
PostPosted: 25 Dec 2011 
Хиппей (support team)
User avatar
Joined: 30 Jul 2007
Posts: 106553
Lоcаtion: Киев (Kyiv, UA)
Age: 45
Name: Andrey
Качаю лосика :dance:

Хотя, вроде уже качал и не раз :crazy:

_________________


Top
 Profile E-mail  
 
 
PostPosted: 30 Dec 2011 
Хиппей (support team)
User avatar
Joined: 30 Jul 2007
Posts: 106553
Lоcаtion: Киев (Kyiv, UA)
Age: 45
Name: Andrey
Secrecy - 1991 - Raging Romance [ape]

Attachment:
front.jpg
front.jpg [ 2.12 MiB | Viewed 83 times ]

Attachment:
back.jpg
back.jpg [ 2.17 MiB | Viewed 71 times ]


Genre: Progressive Metal
Location: Germany
Format: ape+cue+log+covers
Size: 318 Mb


Line-up:

Peter Dartin - Vocals, Guitar
Manny Meccyca - Guitars
Alex "Trödel" Zasso - Drums
Steve Kerby - Bass
Jörn Schluter - Guitars

    1. Observer From Above - 04:47
    2. Embrace (The Greatest Gift, Part 1) - 02:02
    3. Times Of Tears - 04:23
    4. Mourning - 02:42
    5. Guitarian - 01:12
    6. This World's Wisdom - 05:28
    7. The One To Adore (bonus track) - 03:54
    8. No? No! - 04:45
    9. All Effort's Aim (The Greatest Gift, Part 2) - 05:15
    10. Through Clouds Of Doubt - 02:27
    11. To Mind's Borderline (This World's Wisdom Reprise) - 00:29
    12. Ideology - 04:21
    13. Masquerade - 04:24

    TPT: 46:09

Thanx to Exploded from MMT :thanx:

MultiUp l Narod

После двух прослушиваний альбом мною был не понят.... :vic:

log
EAC extraction logfile from 28. January 2008, 13:06 for CD
Secrecy / Raging Romance

Used drive : BENQ DVD DD DW1640 Adapter: 0 ID: 1
Read mode : Secure with NO C2, accurate stream, disable cache
Read offset correction : 618
Overread into Lead-In and Lead-Out : No

Used output format : C:\- Temp\Metalmadness.Pack.v3.0.-.Tutorial.APE-FLAC-WV\Exact Audio Copy 0.9b4 + APE WV & FLAC Encoders\MAC.EXE (Monkey's Audio Lossless Encoder)
High Lossless Compression

Other options :
Fill up missing offset samples with silence : Yes
Delete leading and trailing silent blocks : No
Native Win32 interface for Win NT & 2000


Range status and errors
Selected range
Filename C:\- Temp\Secrecy-Raging_Romance.wav

Peak level 99.3 %
Range quality 100.0 %
CRC D962FD88
Copy OK

No errors occured

End of status report


cue
PERFORMER "Secrecy"
TITLE "Raging Romance"
FILE "Secrecy-Raging_Romance.ape" WAVE
TRACK 01 AUDIO
TITLE "Observer From Above"
PERFORMER "Secrecy"
INDEX 01 00:00:00
TRACK 02 AUDIO
TITLE "Embrace"
PERFORMER "Secrecy"
FLAGS DCP
INDEX 01 04:47:03
TRACK 03 AUDIO
TITLE "Times of Tears"
PERFORMER "Secrecy"
FLAGS DCP
INDEX 00 06:47:73
INDEX 01 06:48:70
TRACK 04 AUDIO
TITLE "Mourning"
PERFORMER "Secrecy"
FLAGS DCP
INDEX 00 11:11:10
INDEX 01 11:11:68
TRACK 05 AUDIO
TITLE "Guitarian"
PERFORMER "Secrecy"
FLAGS DCP
INDEX 00 13:53:70
INDEX 01 13:54:23
TRACK 06 AUDIO
TITLE "This World's Wisdom"
PERFORMER "Secrecy"
FLAGS DCP
INDEX 00 15:05:45
INDEX 01 15:06:13
TRACK 07 AUDIO
TITLE "The One to Adore"
PERFORMER "Secrecy"
FLAGS DCP
INDEX 00 20:34:23
INDEX 01 20:34:43
TRACK 08 AUDIO
TITLE "No? No!"
PERFORMER "Secrecy"
FLAGS DCP
INDEX 00 24:28:18
INDEX 01 24:28:53
TRACK 09 AUDIO
TITLE "All Effort's Aim"
PERFORMER "Secrecy"
FLAGS DCP
INDEX 00 29:11:35
INDEX 01 29:13:28
TRACK 10 AUDIO
TITLE "Through Clouds of Doubt"
PERFORMER "Secrecy"
FLAGS DCP
INDEX 00 34:26:48
INDEX 01 34:28:60
TRACK 11 AUDIO
TITLE "To Mind's Borderline"
PERFORMER "Secrecy"
FLAGS DCP
INDEX 00 36:55:23
INDEX 01 36:55:45
TRACK 12 AUDIO
TITLE "Ideology"
PERFORMER "Secrecy"
FLAGS DCP
INDEX 01 37:24:50
TRACK 13 AUDIO
TITLE "Masquerade"
PERFORMER "Secrecy"
FLAGS DCP
INDEX 00 41:45:70
INDEX 01 41:48:33


spectrum
Attachment:
spectrum.jpg
spectrum.jpg [ 361.89 KiB | Viewed 82 times ]

_________________


Top
 Profile E-mail  
 
 
PostPosted: 01 Jan 2012 
Хиппей (support team)
User avatar
Joined: 30 Jul 2007
Posts: 106553
Lоcаtion: Киев (Kyiv, UA)
Age: 45
Name: Andrey
Secrecy - 1990 - Art In Motion [ape]

Attachment:
front.jpg
front.jpg [ 3.08 MiB | Viewed 80 times ]

Attachment:
back.jpg
back.jpg [ 2.7 MiB | Viewed 73 times ]


Genre: Progressive Metal
Location: Germany
Format: ape+cue+log+scans
Size: 366 Mb


Line-up:

Peter Dartin - Vocals, Guitars
Manny Meccyca - Guitars
Alex "Trödel" Zasso - Drums
Steve Kerby - Bass
Jörn Schluter - Guitars

    1. Trisomie XXI - 04:49
    2. Final Words - 03:48
    3. Last of the Dynasty - 07:15
    4. A New Beginning - 04:40
    5. Coroner's Inquest - 04:49
    6. Like Burning One's Boat (instrumental) - 02:58
    7. The Fear to Feel - 06:47
    8. Inside You - 05:14

    TPT: 53:37

После семи прослушиваний альбом мною был не понят.... :vic:

Thanx to Exploded from MMT

MultiUp l Narod

log
EAC extraction logfile from 28. January 2008, 12:54 for CD
Secrecy / Art In Motion

Used drive : BENQ DVD DD DW1640 Adapter: 0 ID: 1
Read mode : Secure with NO C2, accurate stream, disable cache
Read offset correction : 618
Overread into Lead-In and Lead-Out : No

Used output format : C:\- Temp\Metalmadness.Pack.v3.0.-.Tutorial.APE-FLAC-WV\Exact Audio Copy 0.9b4 + APE WV & FLAC Encoders\MAC.EXE (Monkey's Audio Lossless Encoder)
High Lossless Compression

Other options :
Fill up missing offset samples with silence : Yes
Delete leading and trailing silent blocks : No
Native Win32 interface for Win NT & 2000


Range status and errors
Selected range
Filename C:\- Temp\Secrecy.wav

Peak level 99.9 %
Range quality 100.0 %
CRC 3108F060
Copy OK

No errors occured

End of status report


cue
PERFORMER "Secrecy"
TITLE "Art In Motion"
FILE "Secrecy.ape" WAVE
TRACK 01 AUDIO
TITLE "Trisomie XXI"
PERFORMER "Secrecy"
INDEX 01 00:00:00
TRACK 02 AUDIO
TITLE "Final Words"
PERFORMER "Secrecy"
FLAGS DCP
INDEX 01 04:49:47
TRACK 03 AUDIO
TITLE "Last Of The Dynasty"
PERFORMER "Secrecy"
FLAGS DCP
INDEX 01 08:38:17
TRACK 04 AUDIO
TITLE "A New Beginning"
PERFORMER "Secrecy"
FLAGS DCP
INDEX 01 15:52:27
TRACK 05 AUDIO
TITLE "Acting With Intellect"
PERFORMER "Secrecy"
FLAGS DCP
INDEX 00 20:32:72
INDEX 01 20:34:72
TRACK 06 AUDIO
TITLE "Himitsu"
PERFORMER "Secrecy"
FLAGS DCP
INDEX 00 26:31:60
INDEX 01 26:33:60
TRACK 07 AUDIO
TITLE "Coroner┤s Inquest"
PERFORMER "Secrecy"
FLAGS DCP
INDEX 00 33:44:07
INDEX 01 33:45:07
TRACK 08 AUDIO
TITLE "Like Burning One┤s Boat"
PERFORMER "Secrecy"
FLAGS DCP
INDEX 00 38:34:40
INDEX 01 38:36:40
TRACK 09 AUDIO
TITLE "The Fear To Feel"
PERFORMER "Secrecy"
FLAGS DCP
INDEX 01 41:35:10
TRACK 10 AUDIO
TITLE "Inside You"
PERFORMER "Secrecy"
FLAGS DCP
INDEX 01 48:22:65


spectrum
Attachment:
spectrum.jpg
spectrum.jpg [ 352.51 KiB | Viewed 79 times ]

_________________


Top
 Profile E-mail  
 
 
PostPosted: 01 Jan 2012 
Хиппей (support team)
User avatar
Joined: 30 Jul 2007
Posts: 106553
Lоcаtion: Киев (Kyiv, UA)
Age: 45
Name: Andrey
Мдя... или я конь, или... Дракон :leo:

Кому-то еще музыка, вокал и всё остальное у этой группы понравились? :esel:
И это... чем именно и что понравилось? :oops:

Несколько дней слушаю - ну никак не могу понять их. Вроде и никакой сложности, но задвинутый "в шкаф" вокал и монотонность делают своё унылое дело :fingal:

_________________


Top
 Profile E-mail  
 
Display posts from previous:  Sort by  
Post new topic Reply to topic  [ 11 posts ] 

All times are UTC + 3 hours


Who is online

Users browsing this forum: No registered users and 1 guest


You cannot post new topics in this forum
You cannot reply to topics in this forum
You cannot edit your posts in this forum
You cannot delete your posts in this forum
You cannot post attachments in this forum

Search for:
Яндекс.Метрика
Powered by phpBB © 2000, 2002, 2005, 2007 phpBB Group