\m/ 80's metal \m/

Информационно-аналитический форум "80 см пыли" (In Search We Trust) "У нас никто никуда не спешит"
Me For You - http://me-4u.com
It is currently 21 Oct 2018

All times are UTC + 3 hours

Spoiler
Chat - temporary registration for foreign users (please leave your application here)







Post new topic Reply to topic  [ 7 posts ] 
Author Message
 
PostPosted: 20 Dec 2011 
Metal Hammer collector
User avatar
Joined: 14 Jan 2009
Posts: 1418
Lоcаtion: Крым. Россия
Age: 48
Name: Сергей
Лосика никто не видел?

Image

Stream - Take It Or Leave It (1995)
1. The Hunter 04:23
2. She's My Everything 04:10
3. Same Ole Feelin' 04:39
4. Can't Get Enuff 03:52
5. Straight To Heaven 03:44
6. D.O.A. 03:38
7. U.S. Of Mind 03:00
8. I'll Never 4Get You 04:35
9. Who Could Love U More 04:37
10. King Of The Shadow 04:42

David Reece: vocals
Peter Scheithauer: guitar
Dave Spitz: bass
Jay Schellen: drums

_________________
Heavy Metal


Top
 Profile  
 
 
PostPosted: 20 Dec 2011 
Персональный статус
User avatar
Joined: 02 Jul 2009
Posts: 293
Name: Александр
Спрошу у labanov . Если разрешит ( как релизер ) . Дам ссылку . Сейчас напишу ему .


Top
 Profile E-mail  
 
 
PostPosted: 20 Dec 2011 
Персональный статус
User avatar
Joined: 02 Jul 2009
Posts: 293
Name: Александр
Сергей разрешил . Ссыли : http://ifolder.ru/26588612 или
http://www.megaupload.com/?d=LM8WKUXA . Все спасибы уходят к уважаемому labanov
Можно наверное написать , что found .

Stream - 1995 - Take It Or Leave It [flac]

Genre: Melodic Heavy Metal
Location: USA
Format: flac+cue+log+covers
Size: 282 Mb


Attachment:
front.jpg
front.jpg [ 811.19 KiB | Viewed 94 times ]

Attachment:
back.jpg
back.jpg [ 409.33 KiB | Viewed 86 times ]


    1. The Hunter - 04:23
    2. She's My Everything - 04:10
    3. Same Ole Feelin' - 04:39
    4. Can't Get Enuff - 03:52
    5. Straight To Heaven - 03:44
    6. D.O.A. - 03:38
    7. U.S. Of Mind - 03:00
    8. I'll Never 4Get You - 04:35
    9. Who Could Love U More - 04:37
    10. King Of The Shadow - 04:42

    TPT: 41:20

log
Exact Audio Copy V0.99 prebeta 1 from 25. May 2007

EAC extraction logfile from 20. October 2011, 23:09

Stream / Take It Or Leave It

Used drive : Optiarc DVD RW AD-7201S Adapter: 1 ID: 1

Read mode : Secure
Utilize accurate stream : Yes
Defeat audio cache : Yes
Make use of C2 pointers : No

Read offset correction : 48
Overread into Lead-In and Lead-Out : No
Fill up missing offset samples with silence : Yes
Delete leading and trailing silent blocks : No
Used interface : Installed external ASPI interface

Used output format : Internal WAV Routines
Sample format : 44.100 Hz; 16 Bit; Stereo


TOC of the extracted CD

Track | Start | Length | Start sector | End sector
---------------------------------------------------------
1 | 0:00.00 | 4:23.35 | 0 | 19759
2 | 4:23.35 | 4:10.35 | 19760 | 38544
3 | 8:33.70 | 4:39.60 | 38545 | 59529
4 | 13:13.55 | 3:52.55 | 59530 | 76984
5 | 17:06.35 | 3:44.55 | 76985 | 93839
6 | 20:51.15 | 3:38.60 | 93840 | 110249
7 | 24:30.00 | 3:00.25 | 110250 | 123774
8 | 27:30.25 | 4:35.20 | 123775 | 144419
9 | 32:05.45 | 4:37.15 | 144420 | 165209
10 | 36:42.60 | 4:45.60 | 165210 | 186644


Range status and errors

Selected range

Filename E:\CUE\Stream - Take It Or Leave It.wav

Peak level 100.0 %
Range quality 100.0 %
Copy CRC CDBD7D23
Copy OK

No errors occurred

End of status report


cue
REM GENRE "Heavy Metal"
REM DATE 1995
REM DISCID 7C09B80A
REM COMMENT "ExactAudioCopy v0.99pb1"
PERFORMER "Stream"
TITLE "Take It Or Leave It"
FILE "Stream - Take It Or Leave It.wav" WAVE
TRACK 01 AUDIO
TITLE "The Hunter "
PERFORMER "Stream"
FLAGS DCP
INDEX 01 00:00:00
TRACK 02 AUDIO
TITLE "She's My Everything"
PERFORMER "Stream"
FLAGS DCP
INDEX 01 04:23:35
TRACK 03 AUDIO
TITLE "Same Ole Feelin'"
PERFORMER "Stream"
FLAGS DCP
INDEX 01 08:33:70
TRACK 04 AUDIO
TITLE "Can't Get Enuff "
PERFORMER "Stream"
FLAGS DCP
INDEX 01 13:13:55
TRACK 05 AUDIO
TITLE "Straight To Heaven"
PERFORMER "Stream"
FLAGS DCP
INDEX 01 17:06:35
TRACK 06 AUDIO
TITLE "D.O.A. "
PERFORMER "Stream"
FLAGS DCP
INDEX 01 20:51:15
TRACK 07 AUDIO
TITLE "U.S. Of Mind "
PERFORMER "Stream"
FLAGS DCP
INDEX 01 24:30:00
TRACK 08 AUDIO
TITLE "I'll Never 4Get You"
PERFORMER "Stream"
FLAGS DCP
INDEX 01 27:30:25
TRACK 09 AUDIO
TITLE "Who Could Love U More"
PERFORMER "Stream"
FLAGS DCP
INDEX 01 32:05:45
TRACK 10 AUDIO
TITLE "King Of The Shadow "
PERFORMER "Stream"
FLAGS DCP
INDEX 01 36:42:60


spectrum
Attachment:
spectrum.jpg
spectrum.jpg [ 346.81 KiB | Viewed 74 times ]


Top
 Profile E-mail  
 
 
PostPosted: 20 Dec 2011 
Metal Hammer collector
User avatar
Joined: 14 Jan 2009
Posts: 1418
Lоcаtion: Крым. Россия
Age: 48
Name: Сергей
Спасибо и ему и тебе Саша!

_________________
Heavy Metal


Top
 Profile  
 
 
PostPosted: 21 Dec 2011 
Я набрал 1000 сообщений!
Joined: 24 Oct 2009
Posts: 2065
Lоcаtion: Оренбург
Age: 55
Name: Юра
Ребята Спасибо!

_________________
:dash: I am happy!


Top
 Profile E-mail  
 
 
PostPosted: 22 Dec 2011 
Хиппей (support team)
User avatar
Joined: 30 Jul 2007
Posts: 107079
Lоcаtion: Киев (Kyiv, UA)
Age: 45
Name: Andrey
Спасибо всем Серёгам и Саням :thanx:

mirror: MultiUp l Narod

_________________


Top
 Profile E-mail  
 
 
PostPosted: 22 Dec 2011 
Труъ
User avatar
Joined: 14 Jul 2009
Posts: 158
Lоcаtion: Hell Is Here
Age: 48
Name: Adriano
Many Thanx ! :true:


Top
 Profile E-mail  
 
Display posts from previous:  Sort by  
Post new topic Reply to topic  [ 7 posts ] 

All times are UTC + 3 hours


Who is online

Users browsing this forum: No registered users and 3 guests


You cannot post new topics in this forum
You cannot reply to topics in this forum
You cannot edit your posts in this forum
You cannot delete your posts in this forum
You cannot post attachments in this forum

Search for:
Яндекс.Метрика
Powered by phpBB © 2000, 2002, 2005, 2007 phpBB Group