\m/ 80's metal \m/

Информационно-аналитический форум "80 см пыли" (In Search We Trust) "У нас никто никуда не спешит"
Me For You - http://me-4u.com
It is currently 16 Nov 2018

All times are UTC + 3 hours

Spoiler
Chat - temporary registration for foreign users (please leave your application here)







Post new topic Reply to topic  [ 2 posts ] 
Author Message
 
PostPosted: 17 Dec 2011 
Хиппей (support team)
User avatar
Joined: 30 Jul 2007
Posts: 108039
Lоcаtion: Киев (Kyiv, UA)
Age: 45
Name: Andrey
Кто-то когда-то просил данный альбом... :vic:

Sorrogate - 1995 - Endless Interrogation (demo) [wv]

Attachment:
front.jpg
front.jpg [ 8.92 KiB | Viewed 410 times ]

Attachment:
band.jpg
band.jpg [ 68.82 KiB | Viewed 409 times ]


Genre: Technical Power/Thrash Metal
Location: Germany
Format: wv+cue+log (no scans)
Size: 203 Mb


Line-up:

Oliver Baumann - Drums
Roland Schäfer "Roli" - Vocals (lead), Guitars
Achim Neugebauer - Guitars
Matthias Martin - Bass

    1. S.O.S. (Sucker Of Society) - 04:37
    2. Endless Interrogation - 04:39
    3. My Terrible Fear - 07:30
    4. Despotic - 05:31
    5. Feel Like A King - 04:52
    6. Independence - 04:16

    TPT: 31:25

MultiUp l Narod

Thanx to gnoppi from MMT :thanx:

Ну нормальный такой, чуть грувастый трэшачок с не очень хорошим выкрикивающим (читающим) вокалистом :pardon:
Дальше у группы вышел очень хороший полный альбом. Вот его рекомендую всем к прослушиванию.

5+/10

log
Exact Audio Copy V0.99 prebeta 4 from 23. January 2008

EAC extraction logfile from 19. January 2009, 20:26

SORROGATE / Endless Interrogation

Used drive : PLEXTOR CD-R PREMIUM2 Adapter: 0 ID: 1

Read mode : Secure
Utilize accurate stream : Yes
Defeat audio cache : Yes
Make use of C2 pointers : No

Read offset correction : 30
Overread into Lead-In and Lead-Out : No
Fill up missing offset samples with silence : Yes
Delete leading and trailing silent blocks : No
Null samples used in CRC calculations : No
Used interface : Installed external ASPI interface

Used output format : Internal WAV Routines
Sample format : 44.100 Hz; 16 Bit; Stereo


TOC of the extracted CD

Track | Start | Length | Start sector | End sector
---------------------------------------------------------
1 | 0:00.30 | 4:37.05 | 30 | 20809
2 | 4:37.35 | 4:39.74 | 20810 | 41808
3 | 9:17.34 | 7:30.63 | 41809 | 75621
4 | 16:48.22 | 5:31.12 | 75622 | 100458
5 | 22:19.34 | 4:52.14 | 100459 | 122372
6 | 27:11.48 | 4:16.57 | 122373 | 141629


Range status and errors

Selected range

Filename E:\ALTRA ROBA\METALMADNESS\RIPPATI\SORROGATE - Endless interrogation.wav

Peak level 98.8 %
Range quality 100.0 %
Copy CRC 9610AD73
Copy OK

No errors occurred

End of status report


cue
REM GENRE Thrash Metal
REM DATE 1995
REM DISCID 3F076006
REM COMMENT ExactAudioCopy v0.99pb4
PERFORMER "Sorrogate"
TITLE "Endless Interrogation"
REM REPLAYGAIN_ALBUM_GAIN -2.80 dB
REM REPLAYGAIN_ALBUM_PEAK 0.988464
FILE "Sorrogate - Endless Interrogation.wav" WAVE
TRACK 01 AUDIO
TITLE "S.O.S. (Sucker Of Society)"
REM REPLAYGAIN_TRACK_GAIN -3.40 dB
REM REPLAYGAIN_TRACK_PEAK 0.988068
INDEX 00 00:00:00
INDEX 01 00:00:30
TRACK 02 AUDIO
TITLE "Endless Interrogation"
REM REPLAYGAIN_TRACK_GAIN -2.01 dB
REM REPLAYGAIN_TRACK_PEAK 0.988373
INDEX 01 04:37:35
TRACK 03 AUDIO
TITLE "My Terrible Fear"
REM REPLAYGAIN_TRACK_GAIN -3.66 dB
REM REPLAYGAIN_TRACK_PEAK 0.988464
INDEX 01 09:17:34
TRACK 04 AUDIO
TITLE "Despotic"
REM REPLAYGAIN_TRACK_GAIN -1.35 dB
REM REPLAYGAIN_TRACK_PEAK 0.988098
INDEX 01 16:48:22
TRACK 05 AUDIO
TITLE "Feel Like A King"
REM REPLAYGAIN_TRACK_GAIN -2.47 dB
REM REPLAYGAIN_TRACK_PEAK 0.987946
INDEX 01 22:19:34
TRACK 06 AUDIO
TITLE "Independence"
REM REPLAYGAIN_TRACK_GAIN -2.32 dB
REM REPLAYGAIN_TRACK_PEAK 0.987549
INDEX 01 27:11:48


spectrum
Attachment:
spectrum.jpg
spectrum.jpg [ 318.79 KiB | Viewed 84 times ]

_________________


Top
 Profile E-mail  
 
 
PostPosted: 19 Dec 2011 
Работнечег
User avatar
Joined: 28 Aug 2007
Posts: 5511
Lоcаtion: г. Москва
Age: 29
Name: Дима
Спасибо Андрюх! :true:


Top
 Profile E-mail  
 
Display posts from previous:  Sort by  
Post new topic Reply to topic  [ 2 posts ] 

All times are UTC + 3 hours


Who is online

Users browsing this forum: No registered users and 4 guests


You cannot post new topics in this forum
You cannot reply to topics in this forum
You cannot edit your posts in this forum
You cannot delete your posts in this forum
You cannot post attachments in this forum

Search for:
Яндекс.Метрика
cron
Powered by phpBB © 2000, 2002, 2005, 2007 phpBB Group