\m/ 80's metal \m/

Информационно-аналитический форум "80 см пыли" (In Search We Trust) "У нас никто никуда не спешит"
Железнодорожная биржа - RailAgent
It is currently 22 Jul 2018

All times are UTC + 3 hours

Spoiler
Chat - temporary registration for foreign users (please leave your application here)







Post new topic Reply to topic  [ 11 posts ] 
Author Message
 
PostPosted: 14 Nov 2011 
А может смените мне статус?..
Joined: 12 Dec 2008
Posts: 944
Lоcаtion: BULGARIA
Age: 39
Name: DIMITЪR
Skanners

Image

Year:1988
Genre:Traditional heavy metal
Country:Italy
Quality:FLAC+CUE+LOG
Dounload:Megaupload
Size:343mb

Image

01 Pictures of war
02 Something very special
03 Drowning down the drain
04 She's like a boy
05 Fight back
06 Turn it louder now
07 We are night
08 Wild
09 One Night
10 It's Hard To Believe(Bonus track)
11 Devil Cries Out(Bonus track)


Лося сделан блогодарение с помощь JKA я только импорт несколко корекций и снова рипнул.


Top
 Profile  
 
 
PostPosted: 15 Nov 2011 
Труъ
User avatar
Joined: 14 Jul 2009
Posts: 158
Lоcаtion: Hell Is Here
Age: 48
Name: Adriano
Many Thanx ! :thanx:


Top
 Profile E-mail  
 
 
PostPosted: 15 Nov 2011 
Хиппей (support team)
User avatar
Joined: 30 Jul 2007
Posts: 105206
Lоcаtion: Киев (Kyiv, UA)
Age: 45
Name: Andrey
:thanx:

_________________


Top
 Profile E-mail  
 
 
PostPosted: 22 Sep 2013 
Хиппей (support team)
User avatar
Joined: 30 Jul 2007
Posts: 105206
Lоcаtion: Киев (Kyiv, UA)
Age: 45
Name: Andrey
А вот и "первые ласточки" от Димитарчика :cry:

Подобрался я к этому "лосю".
Мало того, что музыка оказалась попсоватой (ожидал услышать если уж не Heavy/Power, то нечто подобное) - альбом оказался чуть ли хард-роково глэмовый со слащавыми мелодиями и таким же вокалом...
И вообще, я их уже как-то здесь и хвалили и чмырил :arrow: viewtopic.php?f=124&t=2926
Но явно альбомы такие вот разные все у них :vic:
Этот с боооольшой натяжкой отнесу к Melodic Metal. А фигли делать, это универсальное определение для подобной музыки =)
Ну или я вообще в стилистике перестал разбираться :fingal:

Ну а рип типично болгарский - со всеми вытекающими. Качество звука не ахти, некие артефакты "ремастера", как уже принято, присутствуют.
Но вроде все трэки полные и ни один не обрывается.

4/10

mirror: Narod

log
Exact Audio Copy V1.0 beta 1 from 15. November 2010

Отчет на EAC за извличане, извършено на 14. ноември 2011, 21:49

Skanners / Pictures Of War

Използвано устройство : HL-DT-STDVDRAM GH22NS70 Adapter: 2 ID: 0

Режим на четене : Burst

Офсет корекция при четене : 0
Препрочитане на секторите Lead-In и Lead-Out : Не
Запълване на липсващи офсет семпли с тишина : Да
Изтриване на блокове тишина в началото и края : Не
Използване на нулеви семпли при CRC изчисления : Не
Използван интерфейс : Вграден Win32 интерфейс за Win NT & 2000

Използван изходен формат : Енкодер Дефиниран от Потребителя
Избран битрейт : 896 kBit/s
Качество : Високо
Добави ID3 таг : Не
Конзолен компресор : D:\EAC 2\EAC_1.0_beta_1_Portable_Multilingual\App\EAC\FLAC\flac.exe
Допълнителни конзолни опции : -6 -V -T "ARTIST=%a" -T "TITLE=%t" -T "ALBUM=%g" -T "DATE=%y" -T "TRACKNUMBER=%n" -T "GENRE=%m" -T "COMMENT=%e" %j--picture="%i"%j %s -o %d


TOC на извлечения CD

Трак | Начало | Дължина | Начален сектор | Краен сектор
------------------------------------------------------------
1 | 0:00.00 | 4:45.35 | 0 | 21409
2 | 4:45.35 | 2:37.66 | 21410 | 33250
3 | 7:23.26 | 3:14.10 | 33251 | 47810
4 | 10:37.36 | 4:04.50 | 47811 | 66160
5 | 14:42.11 | 2:46.10 | 66161 | 78620
6 | 17:28.21 | 3:49.10 | 78621 | 95805
7 | 21:17.31 | 4:12.35 | 95806 | 114740
8 | 25:29.66 | 4:43.68 | 114741 | 136033
9 | 30:13.59 | 4:29.22 | 136034 | 156230
10 | 34:43.06 | 5:14.36 | 156231 | 179816
11 | 39:57.42 | 4:57.62 | 179817 | 202153


Състояние и грешки на диапазон

Избран диапазон

Име на файл D:\MUSIC Torrent from Download\Skanners - Pictures Of War.wav

Пиково ниво 100.0 %
Скорост на извличане 2.8 X
Тестван CRC 0F322C26
Копиран CRC 0F322C26
Копиране OK

Няма грешки

Край на отчета

cue
REM GENRE Metal
REM DATE 1988
REM DISCID 9E0A870B
REM COMMENT "ExactAudioCopy v1.0b1"
PERFORMER "Skanners "
TITLE "Pictures Of War"
FILE "Skanners - Pictures Of War.flac" WAVE
TRACK 01 AUDIO
TITLE "Pictures Of War"
PERFORMER "Skanners "
FLAGS DCP
INDEX 01 00:00:00
TRACK 02 AUDIO
TITLE "Something Very Special"
PERFORMER "Skanners "
FLAGS DCP
INDEX 01 04:45:35
TRACK 03 AUDIO
TITLE "Drowning Down The Drain"
PERFORMER "Skanners "
FLAGS DCP
INDEX 01 07:23:26
TRACK 04 AUDIO
TITLE "She's Like A Boy"
PERFORMER "Skanners "
FLAGS DCP
INDEX 01 10:37:36
TRACK 05 AUDIO
TITLE "Fight Back"
PERFORMER "Skanners "
FLAGS DCP
INDEX 01 14:42:11
TRACK 06 AUDIO
TITLE "Turn It Louder Now"
PERFORMER "Skanners "
FLAGS DCP
INDEX 01 17:28:21
TRACK 07 AUDIO
TITLE "We Are Night"
PERFORMER "Skanners "
FLAGS DCP
INDEX 01 21:17:31
TRACK 08 AUDIO
TITLE "Wild"
PERFORMER "Skanners "
FLAGS DCP
INDEX 01 25:29:66
TRACK 09 AUDIO
TITLE "One Night"
PERFORMER "Skanners "
FLAGS DCP
INDEX 01 30:13:59
TRACK 10 AUDIO
TITLE "It's Hard To Believe"
PERFORMER "Skanners "
FLAGS DCP
INDEX 01 34:43:06
TRACK 11 AUDIO
TITLE "Devil Cries Out"
PERFORMER "Skanners "
FLAGS DCP
INDEX 01 39:57:42

_________________


Top
 Profile E-mail  
 
 
PostPosted: 22 Sep 2013 
А может смените мне статус?..
Joined: 12 Dec 2008
Posts: 944
Lоcаtion: BULGARIA
Age: 39
Name: DIMITЪR
Никакви ремастери ,все оригинал ,1:1 ,толко время паузи сниженный и IN / OUT , ето ваши изобретения Скатърврейнчик :esel: :(


Top
 Profile  
 
 
PostPosted: 22 Sep 2013 
Хиппей (support team)
User avatar
Joined: 30 Jul 2007
Posts: 105206
Lоcаtion: Киев (Kyiv, UA)
Age: 45
Name: Andrey
Ты вторую балладочку послушай, угу, внимательно :cry:

_________________


Top
 Profile E-mail  
 
 
PostPosted: 22 Sep 2013 
Хиппей (support team)
User avatar
Joined: 30 Jul 2007
Posts: 105206
Lоcаtion: Киев (Kyiv, UA)
Age: 45
Name: Andrey
cryptors wrote:
Никакви ремастери ,все оригинал ,1:1

У тебя диск этот есть? :crazy:

_________________


Top
 Profile E-mail  
 
 
PostPosted: 07 Oct 2013 
Хиппей (support team)
User avatar
Joined: 30 Jul 2007
Posts: 105206
Lоcаtion: Киев (Kyiv, UA)
Age: 45
Name: Andrey
Ну я тута еще пар неделек альбом погонял-послушал.
Более менее начал нравится :meloman:
Меняю оченку на 6/10

Ну а звук несерьезный это уже такое :pardon:
И затем было в конце третьего трэка сливать воду в унитазе, не совсем я понял :vic:

spectrum
Image

_________________


Top
 Profile E-mail  
 
 
PostPosted: 07 Oct 2013 
А может смените мне статус?..
Joined: 12 Dec 2008
Posts: 944
Lоcаtion: BULGARIA
Age: 39
Name: DIMITЪR
А 1986 года какой звук хочешь :esel: все оригинал, лучьший звук никогда не увидишь :nunu: :nunu: :nunu:


Top
 Profile  
 
 
PostPosted: 07 Oct 2013 
Хиппей (support team)
User avatar
Joined: 30 Jul 2007
Posts: 105206
Lоcаtion: Киев (Kyiv, UA)
Age: 45
Name: Andrey
А 1986 года какой звук хочешь :esel: все оригинал, лучьший звук никогда не увидишь :nunu: :nunu: :nunu:

Какой-какой год? :nea:

Тыкни, плиз, сюда еще http://www.metal-archives.com/albums/Sk ... tabs_notes

_________________


Top
 Profile E-mail  
 
 
PostPosted: 07 Oct 2013 
Хиппей (support team)
User avatar
Joined: 30 Jul 2007
Posts: 105206
Lоcаtion: Киев (Kyiv, UA)
Age: 45
Name: Andrey
cryptors wrote:
все оригинал

Ну и откуда ты этот оригинал взял, уважаемый Димитарчик-сан? :lloo:

_________________


Top
 Profile E-mail  
 
Display posts from previous:  Sort by  
Post new topic Reply to topic  [ 11 posts ] 

All times are UTC + 3 hours


Who is online

Users browsing this forum: No registered users and 2 guests


You cannot post new topics in this forum
You cannot reply to topics in this forum
You cannot edit your posts in this forum
You cannot delete your posts in this forum
You cannot post attachments in this forum

Search for:
Яндекс.Метрика
Powered by phpBB © 2000, 2002, 2005, 2007 phpBB Group