\m/ 80's metal \m/

Информационно-аналитический форум "80 см пыли" (In Search We Trust) "У нас никто никуда не спешит"
Me For You - http://me-4u.com
It is currently 22 Nov 2018

All times are UTC + 3 hours

Spoiler
Chat - temporary registration for foreign users (please leave your application here)







Post new topic Reply to topic  [ 9 posts ] 
Author Message
 
PostPosted: 21 Sep 2011 
А может смените мне статус?..
Joined: 12 Dec 2008
Posts: 988
Lоcаtion: BULGARIA
Age: 40
Name: DIMITЪR
S.A.D.O.-Dirty Fantasy [1988]

Attachment:
SADO.jpg
SADO.jpg [ 20.37 KiB | Viewed 1305 times ]


Жанр: Heavy Metal
Страна: Germany
SPV / Noise International

01 The Door - 04:00
02 Dirty Charms - 03:31
03 Riches Makes Enemies - 03:19
04 I'm Never Ever Blue - 04:42
05 Strike Back - 02:08
06 Cities On Flame - 03:32
07 On The Races - 04:15
08 Gamblin' Fool - 03:15
09 Dancing In The Dark - 03:12
10 Homicide - 01:14

Total Playing Time: 32:58


Top
 Profile  
 
 
PostPosted: 26 Oct 2011 
А может смените мне статус?..
Joined: 12 Dec 2008
Posts: 988
Lоcаtion: BULGARIA
Age: 40
Name: DIMITЪR
Известная группа а нигде не увидел лосенка :dash: :dash: В прошлом у меня их на ленту бьли :cry:


Top
 Profile  
 
 
PostPosted: 16 Apr 2012 
А может смените мне статус?..
Joined: 12 Dec 2008
Posts: 988
Lоcаtion: BULGARIA
Age: 40
Name: DIMITЪR
Нашел :true: :true: :true:


Top
 Profile  
 
 
PostPosted: 19 Apr 2012 
***


Last edited by Вася_металлист_2012 on 14 Dec 2012, edited 1 time in total.

Top
  
 
 
PostPosted: 19 Apr 2012 
Хиппей (support team)
User avatar
Joined: 30 Jul 2007
Posts: 108264
Lоcаtion: Киев (Kyiv, UA)
Age: 45
Name: Andrey
http://rutracker.org/forum/viewtopic.php?t=4020234

_________________


Top
 Profile E-mail  
 
 
PostPosted: 19 Apr 2012 
Хиппей (support team)
User avatar
Joined: 30 Jul 2007
Posts: 108264
Lоcаtion: Киев (Kyiv, UA)
Age: 45
Name: Andrey
mirror: Speedy l Narod

S.A.D.O. - 1988 - Dirty Fantasy [flac]

Image
Image Image


Благодарим Дмитрия за рип со своего диска, музыкантов за саму музыку, лэйбл, за то, что издал её. И Виталика (Диму?... забыл уже имя :oops: ) за раздачу трипа на рекере рипа на трекере :thanx:

log
Exact Audio Copy V1.0 beta 3 from 29. August 2011

Отчёт EAC об извлечении, выполненном 28. февраля 2012, 13:12

S.A.D.O. / Dirty Fantasy [N 0115-3]

Дисковод: Optiarc DVD RW AD-7200A Adapter: 0 ID: 0

Режим чтения : Достоверность
Использование точного потока : Да
Отключение кэша аудио : Да
Использование указателей C2 : Нет

Коррекция смещения при чтении : 48
Способность читать области Lead-in и Lead-out : Нет
Заполнение пропущенных сэмплов тишиной : Да
Удаление блоков с тишиной в начале и конце : Нет
При вычислениях CRC использовались нулевые сэмплы : Да
Интерфейс : Встроенный Win32-интерфейс для Win NT/2000

Выходной формат : Пользовательский кодировщик
Выбранный битрейт : 32 kBit/s
Качество : Высокий
Добавление ID3-тега : Нет
Утилита сжатия : C:\Program Files\Exact Audio Copy\Flac\flac.exe
Дополнительные параметры : -V -8 -T "Date=%year%" -T "Genre=%genre%" %source%


TOC извлечённого CD

Трек | Старт | Длительность | Начальный сектор | Конечный сектор
---------------------------------------------------------------------
1 | 0:00.00 | 4:04.70 | 0 | 18369
2 | 4:04.70 | 3:25.12 | 18370 | 33756
3 | 7:30.07 | 3:22.28 | 33757 | 48934
4 | 10:52.35 | 4:46.65 | 48935 | 70449
5 | 15:39.25 | 2:11.65 | 70450 | 80339
6 | 17:51.15 | 3:36.25 | 80340 | 96564
7 | 21:27.40 | 4:20.32 | 96565 | 116096
8 | 25:47.72 | 3:18.35 | 116097 | 130981
9 | 29:06.32 | 3:17.18 | 130982 | 145774
10 | 32:23.50 | 1:14.45 | 145775 | 151369


Характеристики диапазона извлечения и сообщения об ошибках

Выбранный диапазон

Имя файла Y:\Music\S.A.D.O\1988 Dirty Fantasy\S.A.D.O. - Dirty Fantasy [N 0115-3].wav

Пиковый уровень 100.0 %
Скорость извлечения 3.3 X
Качество диапазона 99.9 %
CRC теста 2E9DEEC7
CRC копии 2E9DEEC7
Копирование... OK

Ошибок не произошло


AccurateRip: сводка

Трек 1 : извлечено точно (доверие 2) [3C1BD17F] (AR v1)
Трек 2 : извлечено точно (доверие 2) [A2CF8BFB] (AR v1)
Трек 3 : извлечено точно (доверие 2) [7CBBE190] (AR v1)
Трек 4 : извлечено точно (доверие 2) [D5495103] (AR v1)
Трек 5 : извлечено точно (доверие 2) [5596F2D5] (AR v1)
Трек 6 : извлечено точно (доверие 2) [B04E0A4A] (AR v1)
Трек 7 : извлечено точно (доверие 2) [CFFAC0C2] (AR v1)
Трек 8 : извлечено точно (доверие 2) [C55F43BF] (AR v1)
Трек 9 : извлечено точно (доверие 2) [55894054] (AR v1)
Трек 10 : извлечено точно (доверие 2) [2EFAB397] (AR v1)

Все треки извлечены точно

Конец отчёта

==== Контрольная сумма отчёта A3B49D8045166A9DFFF0A368065A37CA153FE3FC13F3F91305ED8A027CD1058F ====

cue
REM GENRE "Heavy Metal"
REM DATE 1988
REM DISCID 8F07E20A
REM COMMENT "ExactAudioCopy v1.0b3"
PERFORMER "S.A.D.O."
TITLE "Dirty Fantasy [N 0115-3]"
FILE "S.A.D.O. - Dirty Fantasy [N 0115-3].flac" WAVE
TRACK 01 AUDIO
TITLE "The Door"
PERFORMER "S.A.D.O."
INDEX 01 00:00:00
TRACK 02 AUDIO
TITLE "Dirty Charms"
PERFORMER "S.A.D.O."
INDEX 00 04:02:70
INDEX 01 04:04:70
TRACK 03 AUDIO
TITLE "Riches Makes Enemies"
PERFORMER "S.A.D.O."
INDEX 00 07:28:07
INDEX 01 07:30:07
TRACK 04 AUDIO
TITLE "I'm Never Ever Blue"
PERFORMER "S.A.D.O."
INDEX 00 10:50:35
INDEX 01 10:52:35
TRACK 05 AUDIO
TITLE "Strike Back"
PERFORMER "S.A.D.O."
INDEX 00 15:37:25
INDEX 01 15:39:25
TRACK 06 AUDIO
TITLE "Cities On Flame"
PERFORMER "S.A.D.O."
INDEX 00 17:49:15
INDEX 01 17:51:15
TRACK 07 AUDIO
TITLE "On The Races"
PERFORMER "S.A.D.O."
INDEX 00 21:25:40
INDEX 01 21:27:40
TRACK 08 AUDIO
TITLE "Gamblin' Fool"
PERFORMER "S.A.D.O."
INDEX 00 25:45:72
INDEX 01 25:47:72
TRACK 09 AUDIO
TITLE "Dancing In The Dark"
PERFORMER "S.A.D.O."
INDEX 00 29:04:32
INDEX 01 29:06:32
TRACK 10 AUDIO
TITLE "Homicide"
PERFORMER "S.A.D.O."
INDEX 00 32:21:50
INDEX 01 32:23:50

spectrum
Image

_________________


Top
 Profile E-mail  
 
 
PostPosted: 21 Apr 2012 
***


Last edited by Вася_металлист_2012 on 14 Dec 2012, edited 1 time in total.

Top
  
 
 
PostPosted: 21 Apr 2012 
Пионэръ
Joined: 25 Aug 2011
Posts: 48
Lоcаtion: Worl
Name: Zoltan Tivesko
Yeah! S.A.D.O.! :true:
:thanx:


Top
 Profile E-mail  
 
 
PostPosted: 07 May 2012 
Пионэръ
Joined: 22 Jun 2010
Posts: 16
Lоcаtion: Madrid
Name: Xose
Great album, thanks!!


Top
 Profile E-mail  
 
Display posts from previous:  Sort by  
Post new topic Reply to topic  [ 9 posts ] 

All times are UTC + 3 hours


Who is online

Users browsing this forum: No registered users and 2 guests


You cannot post new topics in this forum
You cannot reply to topics in this forum
You cannot edit your posts in this forum
You cannot delete your posts in this forum
You cannot post attachments in this forum

Search for:
Яндекс.Метрика
Powered by phpBB © 2000, 2002, 2005, 2007 phpBB Group