\m/ 80's metal \m/

Информационно-аналитический форум "80 см пыли" (In Search We Trust) "У нас никто никуда не спешит"
Железнодорожная биржа - RailAgent
It is currently 23 Jul 2018

All times are UTC + 3 hours

Spoiler
Chat - temporary registration for foreign users (please leave your application here)







Post new topic Reply to topic  [ 7 posts ] 
Author Message
 
PostPosted: 07 Sep 2011 
Хиппей (support team)
User avatar
Joined: 30 Jul 2007
Posts: 105221
Lоcаtion: Киев (Kyiv, UA)
Age: 45
Name: Andrey
Su Ta Gar [1996] [CD] Sentimenak Jarraituz [EAC-APE] BY BASAJAUN [MeTaLMaDNeSS.TeaM].rar

Статус: недооформлено (на премодерации)

Вечерком седня добавлю всю нужную инфу, пока же только голые ссылки, а то упарился лось на винте лежать :esel:

MultiUp l Narod

_________________


Top
 Profile E-mail  
 
 
PostPosted: 09 Sep 2011 
ТрэшЭрос
User avatar
Joined: 18 Jul 2011
Posts: 2296
Lоcаtion: Гулькевичи
Age: 43
Name: Александр
Саныч, :thanx:
Есть в коллекции Su Ta Gar - Itsasoz Beteriko Mugetan (2003). Стиль: Heavy/Speed/Thrash Metal. :true:
Ничё так пацаны лабают... Любителям испанскава языка :blum:

_________________
Thrash no trash!!!


Top
 Profile E-mail  
 
 
PostPosted: 10 Sep 2011 
Пионэръ
Joined: 12 Aug 2009
Posts: 20
Name: Явор
Скорее баскского :pardon:


Top
 Profile E-mail  
 
 
PostPosted: 10 Sep 2011 
Хиппей (support team)
User avatar
Joined: 30 Jul 2007
Posts: 105221
Lоcаtion: Киев (Kyiv, UA)
Age: 45
Name: Andrey
Аааа, да все альбомы уже есть, кажись. Спасибо. Я еще сам не слушал... :oops:

_________________


Top
 Profile E-mail  
 
 
PostPosted: 10 Sep 2011 
ТрэшЭрос
User avatar
Joined: 18 Jul 2011
Posts: 2296
Lоcаtion: Гулькевичи
Age: 43
Name: Александр
Вот, кажисть, усё тхворчество товарищей из Испании: :true: :true: :true:

Jaiotze Basatia (1991)
Hortzak Estuturik (1992)
Munstro Hilak (1993)
Sentimenak Jarraituz (1996)
Agur Jaina Gizon Txiruari (1997)
Homo Sapiens (1999)
Itsasoz Beteriko Mugetan (2003)
Jainko Hilen Uhartean (2006)

Жирным выделил имеющиеся в коллекции альбомчеги...

_________________
Thrash no trash!!!


Top
 Profile E-mail  
 
 
PostPosted: 25 Sep 2011 
Хиппей (support team)
User avatar
Joined: 30 Jul 2007
Posts: 105221
Lоcаtion: Киев (Kyiv, UA)
Age: 45
Name: Andrey
Аааа, да все альбомы уже есть, кажись. Спасибо. Я еще сам не слушал... :oops:

_________________


Top
 Profile E-mail  
 
 
PostPosted: 24 Sep 2015 
Работнечег
User avatar
Joined: 28 Aug 2007
Posts: 5387
Lоcаtion: г. Москва
Age: 29
Name: Дима
Image

Album: Sentimenak Jarraituz
Label: Esan Ozenki Records
Genre: Heavy/Thrash Metal
Coutry: Spain
Format: Flac + Log + Cue + Covers
Size: 416 Mb

Line-Up:
Aitor Gorosabel - Guitars (lead), Vocals
Xabi Bastida - Guitars (rhythm)
Galder Arrillaga - Drums
Asier Osoro - Bass, Vocals (backing)


Tracklist:
1. Putreak 03:30
2. Legez kanpo 04:34
3. Beldurraren jainkoak 03:07
4. Bultza aurrerantz 03:59
5. Zuloaren zuloan 03:16
6. Sentimenak jarraituz 04:47
7. Gautxoria 05:35
8. Aho zabal ergelak 02:58
9. Eraikitzeko suntsitzen 04:46
10. Maskaren atzean 03:10
11. Goiza heldu baino lehen 05:39
12. Gure bizitza 03:36
13. Mututu nahi naute 05:05
14. Errepide hontan galdurik 04:08

LOG
Exact Audio Copy V0.99 prebeta 5 from 4. May 2009

EAC extraction logfile from 17. September 2015, 18:13

Su Ta Gar / Sentimenak Jarraituz

Used drive : PIONEER DVD-RW DVR-221 Adapter: 2 ID: 1

Read mode : Secure
Utilize accurate stream : Yes
Defeat audio cache : Yes
Make use of C2 pointers : No

Read offset correction : 6
Overread into Lead-In and Lead-Out : No
Fill up missing offset samples with silence : Yes
Delete leading and trailing silent blocks : No
Null samples used in CRC calculations : Yes
Used interface : Native Win32 interface for Win NT & 2000

Used output format : User Defined Encoder
Selected bitrate : 32 kBit/s
Quality : High
Add ID3 tag : No
Command line compressor : C:\Program Files\Exact Audio Copy\Flac\flac.exe
Additional command line options : -6 -V %s


TOC of the extracted CD

Track | Start | Length | Start sector | End sector
---------------------------------------------------------
1 | 0:00.00 | 3:29.70 | 0 | 15744
2 | 3:29.70 | 4:34.15 | 15745 | 36309
3 | 8:04.10 | 3:06.65 | 36310 | 50324
4 | 11:11.00 | 3:59.00 | 50325 | 68249
5 | 15:10.00 | 3:15.50 | 68250 | 82924
6 | 18:25.50 | 4:47.25 | 82925 | 104474
7 | 23:13.00 | 5:35.00 | 104475 | 129599
8 | 28:48.00 | 2:57.65 | 129600 | 142939
9 | 31:45.65 | 4:46.00 | 142940 | 164389
10 | 36:31.65 | 3:09.70 | 164390 | 178634
11 | 39:41.60 | 5:39.00 | 178635 | 204059
12 | 45:20.60 | 3:36.05 | 204060 | 220264
13 | 48:56.65 | 5:05.05 | 220265 | 243144
14 | 54:01.70 | 4:07.50 | 243145 | 261719


Range status and errors

Selected range

Filename D:\Музыка\Lossless\Su Ta Gar - Sentimenak Jarraituz (1996)\Su Ta Gar - Sentimenak Jarraituz.wav

Peak level 99.6 %
Range quality 99.9 %
Copy CRC F6F022A0
Copy OK

No errors occurred


AccurateRip summary

Track 1 not present in database
Track 2 not present in database
Track 3 not present in database
Track 4 not present in database
Track 5 not present in database
Track 6 not present in database
Track 7 not present in database
Track 8 not present in database
Track 9 not present in database
Track 10 not present in database
Track 11 not present in database
Track 12 not present in database
Track 13 not present in database
Track 14 not present in database

None of the tracks are present in the AccurateRip database

End of status report

CUE
REM GENRE "Heavy/Thrash Metal"
REM DATE 1996
REM DISCID B90DA10E
REM COMMENT "ExactAudioCopy v0.99pb5"
PERFORMER "Su Ta Gar"
TITLE "Sentimenak Jarraituz"
FILE "Su Ta Gar - Sentimenak Jarraituz.flac" WAVE
TRACK 01 AUDIO
TITLE "Putreak"
PERFORMER "Su Ta Gar"
INDEX 01 00:00:00
TRACK 02 AUDIO
TITLE "Legez Kanpo"
PERFORMER "Su Ta Gar"
INDEX 01 03:29:70
TRACK 03 AUDIO
TITLE "Beldurraren Jainkoak"
PERFORMER "Su Ta Gar"
INDEX 01 08:04:10
TRACK 04 AUDIO
TITLE "Bultza Aurrerantz"
PERFORMER "Su Ta Gar"
INDEX 01 11:11:00
TRACK 05 AUDIO
TITLE "Zuloaren Zuloan"
PERFORMER "Su Ta Gar"
INDEX 01 15:10:00
TRACK 06 AUDIO
TITLE "Sentimenak Jarraituz"
PERFORMER "Su Ta Gar"
INDEX 01 18:25:50
TRACK 07 AUDIO
TITLE "Gautxoria"
PERFORMER "Su Ta Gar"
INDEX 01 23:13:00
TRACK 08 AUDIO
TITLE "Aho Zabal"
PERFORMER "Su Ta Gar"
INDEX 01 28:48:00
TRACK 09 AUDIO
TITLE "Eraikitzeko Suntsitzen"
PERFORMER "Su Ta Gar"
INDEX 01 31:45:65
TRACK 10 AUDIO
TITLE "Maskararen Atzean"
PERFORMER "Su Ta Gar"
INDEX 01 36:31:65
TRACK 11 AUDIO
TITLE "Goiza Heldu Baino Lehen"
PERFORMER "Su Ta Gar"
INDEX 01 39:41:60
TRACK 12 AUDIO
TITLE "Gure Bizitza"
PERFORMER "Su Ta Gar"
INDEX 01 45:20:60
TRACK 13 AUDIO
TITLE "Nahi Naute"
PERFORMER "Su Ta Gar"
INDEX 01 48:56:65
TRACK 14 AUDIO
TITLE "Errepide Hhontan Galdurik"
PERFORMER "Su Ta Gar"
INDEX 01 54:01:70


yadisc

Мой рип с диска! Хороший альбом, довольно сильный!




Top
 Profile E-mail  
 
Display posts from previous:  Sort by  
Post new topic Reply to topic  [ 7 posts ] 

All times are UTC + 3 hours


Who is online

Users browsing this forum: No registered users and 4 guests


You cannot post new topics in this forum
You cannot reply to topics in this forum
You cannot edit your posts in this forum
You cannot delete your posts in this forum
You cannot post attachments in this forum

Search for:
Яндекс.Метрика
Powered by phpBB © 2000, 2002, 2005, 2007 phpBB Group