\m/ 80's metal \m/

Информационно-аналитический форум "80 см пыли" (In Search We Trust) "У нас никто никуда не спешит"
Me For You - http://me-4u.com
It is currently 08 Dec 2019

All times are UTC + 3 hours

Spoiler
Chat - temporary registration for foreign users (please leave your application here)







Post new topic Reply to topic  [ 9 posts ] 
Author Message
 
PostPosted: 10 Nov 2009 
Труъ
User avatar
Joined: 17 Oct 2009
Posts: 124
Name: Олег
Renegade - 1991 - Lost Angels

Формат: APE
Источник: Torrents.ru
Размер архива: 259 MB

Tracklist:
01 - Aiming High.
02 - Young Girl in Love.
03 - Bang Your Head.
04 - Hold On.
05 - Letґs Dance.
06 - Lost Angels.
07 - Heart Attack.
08 - In Union.

Time: 35:42

Download from Narod.ru


Top
 Profile E-mail  
 
 
PostPosted: 10 Nov 2009 
Хиппей (support team)
User avatar
Joined: 30 Jul 2007
Posts: 116013
Lоcаtion: Киев (Kyiv, UA)
Age: 46
Name: Andrey
Олег, спасибо :true:

_________________


Top
 Profile E-mail  
 
 
PostPosted: 15 Apr 2011 
Я набрал 1000 сообщений!
Joined: 12 Dec 2008
Posts: 1081
Lоcаtion: BULGARIA
Age: 41
Name: DIMITЪR
Где ссьлачка :wanna:


Top
 Profile  
 
 
PostPosted: 16 Apr 2011 
адын фелософъ прокметолу
User avatar
Joined: 22 Oct 2009
Posts: 2790
Lоcаtion: Сочи
Age: 42
Name: Сергей
так сколько времени прошло - сдохла :zo:

_________________
Я ненавижу гранж и альтернативную музыку


Top
 Profile E-mail  
 
 
PostPosted: 04 Jul 2011 
Хиппей (support team)
User avatar
Joined: 30 Jul 2007
Posts: 116013
Lоcаtion: Киев (Kyiv, UA)
Age: 46
Name: Andrey
Это называется - не следите за своими ссылками, тогда и постить не нужно :pardon:

Кажись я все же этого лося качал, так что когда-то проверю на винтах и болванках :dance:

_________________


Top
 Profile E-mail  
 
 
PostPosted: 04 Jul 2011 
Хиппей (support team)
User avatar
Joined: 30 Jul 2007
Posts: 116013
Lоcаtion: Киев (Kyiv, UA)
Age: 46
Name: Andrey
А может пока и mp3 @ 320 хватит? :oops:
http://metaltothebones.blogspot.com/201 ... -1991.html

_________________


Top
 Profile E-mail  
 
 
PostPosted: 05 Sep 2013 
Хиппей (support team)
User avatar
Joined: 30 Jul 2007
Posts: 116013
Lоcаtion: Киев (Kyiv, UA)
Age: 46
Name: Andrey
Олежкааааааааа :help:

Можешь перезалить животинку?

_________________


Top
 Profile E-mail  
 
 
PostPosted: 05 Sep 2013 
Хиппей (support team)
User avatar
Joined: 30 Jul 2007
Posts: 116013
Lоcаtion: Киев (Kyiv, UA)
Age: 46
Name: Andrey
А, стоп машинки. Есть он снова на торренте http://rutracker.org/forum/viewtopic.php?t=4046265 :dance:

_________________


Top
 Profile E-mail  
 
 
PostPosted: 17 Oct 2013 
Хиппей (support team)
User avatar
Joined: 30 Jul 2007
Posts: 116013
Lоcаtion: Киев (Kyiv, UA)
Age: 46
Name: Andrey
Послушал альбом. Попса хардовая какая-то, почти детская :esel:

Renegade - 1991 - Lost Angels [ape]

Image
ImageImage
ImageImage


mirror: Narod

log
Exact Audio Copy V0.99 prebeta 4 from 23. January 2008

Отчёт EAC об извлечении, выполненном 3. августа 2011, 19:29

Renegade / Lost Angels

Дисковод: ASUS DRW-22B2L b Adapter: 0 ID: 0

Режим чтения : Достоверность
Использование точного потока : Да
Отключение кэша аудио : Да
Использование указателей C2 : Нет

Коррекция смещения при чтении : 6
Способность читать области Lead-in и Lead-out : Нет
Заполнение пропущенных сэмплов тишиной : Да
Удаление блоков с тишиной в начале и конце : Нет
При вычислениях CRC использовались нулевые сэмплы : Да
Интерфейс : Встроенный Win32-интерфейс для Win NT/2000

Выходной формат : Внутренние WAV-операции
Формат сэмплов : 44.100 Гц; 16 бит; стерео


TOC извлечённого CD

Трек | Старт | Длительность | Начальный сектор | Конечный сектор
---------------------------------------------------------------------
1 | 0:00.00 | 4:59.00 | 0 | 22424
2 | 4:59.00 | 4:29.00 | 22425 | 42599
3 | 9:28.00 | 4:00.45 | 42600 | 60644
4 | 13:28.45 | 4:48.70 | 60645 | 82314
5 | 18:17.40 | 4:27.37 | 82315 | 102376
6 | 22:45.02 | 3:42.08 | 102377 | 119034
7 | 26:27.10 | 4:19.27 | 119035 | 138486
8 | 30:46.37 | 4:57.15 | 138487 | 160776


Характеристики диапазона извлечения и сообщения об ошибках

Выбранный диапазон

Имя файла C:\Documents and Settings\booddoom\Рабочий стол\Новая папка\Renegade - Lost Angels.wav

Пиковый уровень 96.4 %
Качество диапазона 100.0 %
CRC теста 9C8B9254
CRC копии 9C8B9254
Копирование... OK

Ошибок не произошло


AccurateRip: сводка

Трек 1 точное извлечение (доверие 2) [010A4C27]
Трек 2 точное извлечение (доверие 2) [F96B0F7F]
Трек 3 точное извлечение (доверие 2) [6E13C59A]
Трек 4 точное извлечение (доверие 2) [B546F9EF]
Трек 5 точное извлечение (доверие 2) [88997045]
Трек 6 точное извлечение (доверие 2) [E0DDF847]
Трек 7 точное извлечение (доверие 2) [FA7F6256]
Трек 8 точное извлечение (доверие 2) [B4553F99]

Все треки извлечены точно

Конец отчёта

cue
REM GENRE "Heavy Metal"
REM DATE 1991
REM DISCID 6B085F08
REM COMMENT "ExactAudioCopy v0.99pb4"
PERFORMER "Renegade"
TITLE "Lost Angels"
FILE "Renegade - Lost Angels.wav" WAVE
TRACK 01 AUDIO
TITLE "Aiming High"
PERFORMER "Renegade"
INDEX 01 00:00:00
TRACK 02 AUDIO
TITLE "Young Girl in Love"
PERFORMER "Renegade"
INDEX 00 04:57:62
INDEX 01 04:59:00
TRACK 03 AUDIO
TITLE "Bang Your Head"
PERFORMER "Renegade"
INDEX 01 09:28:00
TRACK 04 AUDIO
TITLE "Hold On"
PERFORMER "Renegade"
INDEX 00 13:27:35
INDEX 01 13:28:45
TRACK 05 AUDIO
TITLE "Let┤s Dance"
PERFORMER "Renegade"
INDEX 01 18:17:40
TRACK 06 AUDIO
TITLE "Lost Angels"
PERFORMER "Renegade"
INDEX 00 22:43:70
INDEX 01 22:45:02
TRACK 07 AUDIO
TITLE "Heart Attack"
PERFORMER "Renegade"
INDEX 00 26:25:55
INDEX 01 26:27:10
TRACK 08 AUDIO
TITLE "In Union"
PERFORMER "Renegade"
INDEX 01 30:46:37

_________________


Top
 Profile E-mail  
 
Display posts from previous:  Sort by  
Post new topic Reply to topic  [ 9 posts ] 

All times are UTC + 3 hours


Who is online

Users browsing this forum: No registered users and 1 guest


You cannot post new topics in this forum
You cannot reply to topics in this forum
You cannot edit your posts in this forum
You cannot delete your posts in this forum
You cannot post attachments in this forum

Search for:
Яндекс.Метрика
Powered by phpBB © 2000, 2002, 2005, 2007 phpBB Group