\m/ 80's metal \m/

Информационно-аналитический форум "80 см пыли" (In Search We Trust) "У нас никто никуда не спешит"
Me For You - http://me-4u.com
It is currently 06 Apr 2020

All times are UTC + 3 hours

Spoiler
Chat - temporary registration for foreign users (please leave your application here)







Post new topic Reply to topic  [ 2 posts ] 
Author Message
 
PostPosted: 15 Jan 2020 
Хиппей (support team)
User avatar
Joined: 30 Jul 2007
Posts: 118471
Lоcаtion: Киев (Kyiv, UA)
Age: 46
Name: Andrey
sin2 wrote:
Regime-S.T.Y.H. 1991

Кстати, не было темы у нас на форуме об этой группе.
Завожу :pardon:

_________________


Top
 Profile E-mail  
 
 
PostPosted: 15 Jan 2020 
Хиппей (support team)
User avatar
Joined: 30 Jul 2007
Posts: 118471
Lоcаtion: Киев (Kyiv, UA)
Age: 46
Name: Andrey
Regime - 1991 - Straight Thru Your Heart (reissue 2005) [flac]

Image

mirror: Ur-Files l Ur-Files l Uloz l Narod

log
Exact Audio Copy V1.3 from 2. September 2016

EAC extraction logfile from 1. April 2019, 19:54

Regime / Straight Thru Your Hert

Used drive : HL-DT-STDVDRAM GU40N Adapter: 0 ID: 1

Read mode : Secure
Utilize accurate stream : Yes
Defeat audio cache : Yes
Make use of C2 pointers : No

Read offset correction : 103
Overread into Lead-In and Lead-Out : No
Fill up missing offset samples with silence : Yes
Delete leading and trailing silent blocks : No
Null samples used in CRC calculations : Yes
Used interface : Installed external ASPI interface

Used output format : User Defined Encoder
Selected bitrate : 128 kBit/s
Quality : High
Add ID3 tag : No
Command line compressor : C:\Program Files (x86)\Exact Audio Copy\Flac\flac.exe
Additional command line options : -V -8 -T "Date=%year%" -T "Genre=%genre%" %source%


TOC of the extracted CD

Track | Start | Length | Start sector | End sector
---------------------------------------------------------
1 | 0:00.00 | 3:38.65 | 0 | 16414
2 | 3:38.65 | 3:38.49 | 16415 | 32813
3 | 7:17.39 | 4:28.24 | 32814 | 52937
4 | 11:45.63 | 4:04.12 | 52938 | 71249
5 | 15:50.00 | 4:32.37 | 71250 | 91686
6 | 20:22.37 | 3:41.12 | 91687 | 108273
7 | 24:03.49 | 3:44.53 | 108274 | 125126
8 | 27:48.27 | 3:12.09 | 125127 | 139535
9 | 31:00.36 | 3:14.13 | 139536 | 154098
10 | 34:14.49 | 4:26.09 | 154099 | 174057
11 | 38:40.58 | 3:36.35 | 174058 | 190292
12 | 42:17.18 | 4:53.42 | 190293 | 212309
13 | 47:10.60 | 5:00.27 | 212310 | 234836
14 | 52:11.12 | 3:49.58 | 234837 | 252069
15 | 56:00.70 | 3:41.42 | 252070 | 268686
16 | 59:42.37 | 3:41.46 | 268687 | 285307


Range status and errors

Selected range

Filename C:\Users\workutagin\Desktop\Regime - Straight Thru Your Hert 1991 (2005)\Regime - Straight Thru Your Hert.wav

Peak level 98.8 %
Extraction speed 2.1 X
Range quality 100.0 %
Test CRC 2C575B66
Copy CRC 2C575B66
Copy OK

No errors occurred


AccurateRip summary

Track 1 accurately ripped (confidence 1) [F7567362] (AR v2)
Track 2 accurately ripped (confidence 1) [F0C9C7AA] (AR v2)
Track 3 accurately ripped (confidence 1) [980B9216] (AR v2)
Track 4 accurately ripped (confidence 1) [75F449AE] (AR v2)
Track 5 accurately ripped (confidence 1) [5B27B7A0] (AR v2)
Track 6 accurately ripped (confidence 1) [7B191E97] (AR v2)
Track 7 accurately ripped (confidence 1) [CA73EBF5] (AR v2)
Track 8 accurately ripped (confidence 1) [6D799078] (AR v2)
Track 9 accurately ripped (confidence 1) [B7AD0D8E] (AR v2)
Track 10 accurately ripped (confidence 1) [FD0E4DDE] (AR v2)
Track 11 accurately ripped (confidence 1) [8B5504D3] (AR v2)
Track 12 accurately ripped (confidence 1) [A2E20968] (AR v2)
Track 13 accurately ripped (confidence 1) [87E97966] (AR v2)
Track 14 accurately ripped (confidence 1) [315CB8A4] (AR v2)
Track 15 accurately ripped (confidence 1) [D70A0268] (AR v2)
Track 16 accurately ripped (confidence 1) [A94394FE] (AR v2)

All tracks accurately ripped

End of status report

---- CUETools DB Plugin V2.1.6

[CTDB TOCID: gOITiRUNgS4fTl3B2GM.JP8y14o-] found
Submit result: gOITiRUNgS4fTl3B2GM.JP8y14o- has been confirmed
Track | CTDB Status
1 | (1/1) Accurately ripped
2 | (1/1) Accurately ripped
3 | (1/1) Accurately ripped
4 | (1/1) Accurately ripped
5 | (1/1) Accurately ripped
6 | (1/1) Accurately ripped
7 | (1/1) Accurately ripped
8 | (1/1) Accurately ripped
9 | (1/1) Accurately ripped
10 | (1/1) Accurately ripped
11 | (1/1) Accurately ripped
12 | (1/1) Accurately ripped
13 | (1/1) Accurately ripped
14 | (1/1) Accurately ripped
15 | (1/1) Accurately ripped
16 | (1/1) Accurately ripped


==== Log checksum 131BF5E4267080C37D12D05D6206D1100BFB61739553EB1FA20FB7EE835C6A11 ====

cue
REM GENRE "Hard Rock"
REM DATE 1991
REM DISCID CE0EDC10
REM COMMENT "ExactAudioCopy v1.3"
PERFORMER "Regime "
TITLE " Straight Thru Your Hert "
REM COMPOSER "Regime "
FILE "Regime - Straight Thru Your Hert.flac" WAVE
TRACK 01 AUDIO
TITLE "Castles In The Sand"
PERFORMER "Regime "
REM COMPOSER "Regime "
INDEX 01 00:00:00
TRACK 02 AUDIO
TITLE "Borderline"
PERFORMER "Regime "
REM COMPOSER "Regime "
INDEX 01 03:38:65
TRACK 03 AUDIO
TITLE "Give Back Your Heart"
PERFORMER "Regime "
REM COMPOSER "Regime "
INDEX 01 07:17:39
TRACK 04 AUDIO
TITLE "Waiting For You"
PERFORMER "Regime "
REM COMPOSER "Regime "
INDEX 01 11:45:63
TRACK 05 AUDIO
TITLE "To Love Again"
PERFORMER "Regime "
REM COMPOSER "Regime "
INDEX 01 15:50:00
TRACK 06 AUDIO
TITLE "Straight Through Your Heart"
PERFORMER "Regime "
REM COMPOSER "Regime "
INDEX 01 20:22:37
TRACK 07 AUDIO
TITLE "Lay It On The Line"
PERFORMER "Regime "
REM COMPOSER "Regime "
INDEX 01 24:03:49
TRACK 08 AUDIO
TITLE " Love Comes Down"
PERFORMER "Regime "
REM COMPOSER "Regime "
INDEX 01 27:48:27
TRACK 09 AUDIO
TITLE " Close to You (Outtake)"
PERFORMER "Regime "
REM COMPOSER "Regime "
INDEX 01 31:00:36
TRACK 10 AUDIO
TITLE "Moodswing"
PERFORMER "Regime "
REM COMPOSER "Regime "
INDEX 01 34:14:49
TRACK 11 AUDIO
TITLE " Louder Than Hell (Outtake)"
PERFORMER "Regime "
REM COMPOSER "Regime "
INDEX 01 38:40:58
TRACK 12 AUDIO
TITLE "To Love Again (Live)"
PERFORMER "Regime "
REM COMPOSER "Regime "
INDEX 01 42:17:18
TRACK 13 AUDIO
TITLE " Give Back Your Heart (Live)"
PERFORMER "Regime "
REM COMPOSER "Regime "
INDEX 01 47:10:60
TRACK 14 AUDIO
TITLE " Borderline (Live)"
PERFORMER "Regime "
REM COMPOSER "Regime "
INDEX 01 52:11:12
TRACK 15 AUDIO
TITLE "Castles In The Sand (Live)"
PERFORMER "Regime "
REM COMPOSER "Regime "
INDEX 01 56:00:70
TRACK 16 AUDIO
TITLE " Love Comes Down (Live)"
PERFORMER "Regime "
REM COMPOSER "Regime "
INDEX 01 59:42:37

pics
Image

Image

Image

Image

Image

_________________


Top
 Profile E-mail  
 
Display posts from previous:  Sort by  
Post new topic Reply to topic  [ 2 posts ] 

All times are UTC + 3 hours


Who is online

Users browsing this forum: No registered users and 2 guests


You cannot post new topics in this forum
You cannot reply to topics in this forum
You cannot edit your posts in this forum
You cannot delete your posts in this forum
You cannot post attachments in this forum

Search for:
Яндекс.Метрика
Powered by phpBB © 2000, 2002, 2005, 2007 phpBB Group