\m/ 80's metal \m/

Информационно-аналитический форум "80 см пыли" (In Search We Trust) "У нас никто никуда не спешит"
Me For You - http://me-4u.com
It is currently 21 Jan 2019

All times are UTC + 3 hours

Spoiler
Chat - temporary registration for foreign users (please leave your application here)







Post new topic Reply to topic  [ 9 posts ] 
Author Message
 
PostPosted: 07 Oct 2010 
ыыыы
User avatar
Joined: 17 May 2009
Posts: 952
Lоcаtion: Пушкино, МО
Age: 40
Name: Дмитрий
Image


Жанр: Heavy/Power/Progressive Metal
Происхождение исполнителя: США
Год издания: 1983
Год издания данного носителя: 1989
Страна-производитель носителя: Япония
Аудио кодек: FLAC
Тип рипа: image+.cue
Битрейт аудио: lossless
Продолжительность: 21:26
Рип: Собственный
Лейбл: CAPITOL/EMI-MANHATTAN
Каталоговый номер: CP20-5810
Матрица: CP20-5810 1A3 TO (TOSHIBA)

Треклист:
1. Queen of the Reich 04:22
2. Nightrider 03:49
3. Blinded 03:07
4. The Lady Wore Black 06:15
5. Prophecy 03:53

"Куй"
REM GENRE "Heavy Metal"
REM DATE 1983
REM DISCID 37050505
REM COMMENT "ExactAudioCopy v0.99pb5"
PERFORMER "Queensryche"
TITLE "Queensryche [CP20-5810]"
FILE "Queensryche - Queensryche [CP20-5810].flac" WAVE
TRACK 01 AUDIO
TITLE "Queen Of The Reich"
PERFORMER "Queensryche"
INDEX 01 00:00:00
TRACK 02 AUDIO
TITLE "Nightrider"
PERFORMER "Queensryche"
INDEX 00 04:19:67
INDEX 01 04:22:30
TRACK 03 AUDIO
TITLE "Blinded"
PERFORMER "Queensryche"
INDEX 00 08:09:25
INDEX 01 08:11:62
TRACK 04 AUDIO
TITLE "The Lady Wore Black"
PERFORMER "Queensryche"
INDEX 01 11:18:37
TRACK 05 AUDIO
TITLE "Prophecy"
PERFORMER "Queensryche"
INDEX 00 17:30:62
INDEX 01 17:33:22


"Лог"
Exact Audio Copy V0.99 prebeta 5 from 4. May 2009

Отчёт EAC об извлечении, выполненном 5. октября 2010, 10:48

Queensryche / Queensryche [CP20-5810]

Дисковод: Optiarc DVD RW AD-7200A Adapter: 1 ID: 0

Режим чтения : Достоверность
Использование точного потока : Да
Отключение кэша аудио : Да
Использование указателей C2 : Нет

Коррекция смещения при чтении : 48
Способность читать области Lead-in и Lead-out : Нет
Заполнение пропущенных сэмплов тишиной : Да
Удаление блоков с тишиной в начале и конце : Нет
При вычислениях CRC использовались нулевые сэмплы : Да
Интерфейс : Встроенный Win32-интерфейс для Win NT/2000

Выходной формат : Пользовательский кодировщик
Выбранный битрейт : 128 kBit/s
Качество : Высокий
Добавление ID3-тэга : Нет
Утилита сжатия : C:\Program Files\Exact Audio Copy\Flac\flac.exe
Дополнительные параметры : -8 -V -T "artist=%a" -T "title=%t" -T "album=%g" -T "date=%y" -T "tracknumber=%n" -T "genre=%m" -T "comment=EAC


TOC извлечённого CD

Трек | Старт | Длительность | Начальный сектор | Конечный сектор
---------------------------------------------------------------------
1 | 0:00.00 | 4:22.30 | 0 | 19679
2 | 4:22.30 | 3:49.32 | 19680 | 36886
3 | 8:11.62 | 3:06.50 | 36887 | 50886
4 | 11:18.37 | 6:14.60 | 50887 | 78996
5 | 17:33.22 | 3:52.50 | 78997 | 96446


Характеристики диапазона извлечения и сообщения об ошибках

Выбранный диапазон

Имя файла Y:\Музыка\Queensryche\1983 Queensryche\Queensryche - Queensryche [CP20-5810].wav

Пиковый уровень 98.1 %
Качество диапазона 100.0 %
CRC копии 72A09767
Копирование... OK

Ошибок не произошло


AccurateRip: сводка

Трек 1 точное извлечение (доверие 5) [1392429F]
Трек 2 точное извлечение (доверие 5) [5A1340A6]
Трек 3 точное извлечение (доверие 5) [BCFA3BC0]
Трек 4 точное извлечение (доверие 5) [A596F59C]
Трек 5 точное извлечение (доверие 5) [C62056E0]

Все треки извлечены точно

Конец отчёта


Состав:
Geoff Tate: Vocals
Chris DeGarmo: Guitars
Michael Wilton: Guitars
Eddie Jackson: Bass
Scott Rockenfield: Drums

CP20-5810

_________________
Витасу до Даймонда как Алсу до Руссоса | При переразмещении - спрашивать разрешение!!


Top
 Profile  
 
 
PostPosted: 07 Oct 2010 
дядя Миша
User avatar
Joined: 17 Oct 2008
Posts: 3082
Lоcаtion: USSR
Age: 56
Name: Khy
спасиба! Давай Дим , жми!!!!!!!


Top
 Profile  
 
 
PostPosted: 07 Oct 2010 
Old Time Rock`n`Roll
User avatar
Joined: 23 Jun 2008
Posts: 3383
Lоcаtion: г.Ульяновск
Age: 40
Name: Константин
Спасибо! :thanx:
Queensryche и Obsession отличными EP в 1983 г. начинали свой творческий путь, традиционный американский хэви-пауэр, правда дальше их пути сильно разошлись. Точнее результат.


Top
 Profile  
 
 
PostPosted: 08 Oct 2010 
Хиппей (support team)
User avatar
Joined: 30 Jul 2007
Posts: 109703
Lоcаtion: Киев (Kyiv, UA)
Age: 45
Name: Andrey
:thanx:

_________________


Top
 Profile E-mail  
 
 
PostPosted: 08 Oct 2010 
Почётный металлург
User avatar
Joined: 15 Sep 2007
Posts: 4357
Lоcаtion: Хабаровск
Age: 58
Name: чуть выше
Спасибо, Дмитрий! :thanx:

_________________
Коль будешь людей ты ослами честить,
тебе человеком меж них не прослыть!
(Саади, персидский поэт, 13в.)


Top
 Profile  
 
 
PostPosted: 22 Jul 2011 
ТрэшЭрос
User avatar
Joined: 18 Jul 2011
Posts: 2300
Lоcаtion: Гулькевичи
Age: 44
Name: Александр
Всем тяжёлого рока! :true:
Ссылка уводит меня на http://narod.yandex.ru/404u.yhtml :umnik:

Кто может "оживить"? :esel:

_________________
Thrash no trash!!!


Top
 Profile E-mail  
 
 
PostPosted: 22 Jul 2011 
Хиппей (support team)
User avatar
Joined: 30 Jul 2007
Posts: 109703
Lоcаtion: Киев (Kyiv, UA)
Age: 45
Name: Andrey
Ща реанимирую :dance:

_________________


Top
 Profile E-mail  
 
 
PostPosted: 22 Jul 2011 
Хиппей (support team)
User avatar
Joined: 30 Jul 2007
Posts: 109703
Lоcаtion: Киев (Kyiv, UA)
Age: 45
Name: Andrey
Queensryche - 1983 - Queensryche (EP)

MultiUp l Narod

_________________


Top
 Profile E-mail  
 
 
PostPosted: 22 Jul 2011 
ТрэшЭрос
User avatar
Joined: 18 Jul 2011
Posts: 2300
Lоcаtion: Гулькевичи
Age: 44
Name: Александр
Дякую, Саныч! :thanx:

_________________
Thrash no trash!!!


Top
 Profile E-mail  
 
Display posts from previous:  Sort by  
Post new topic Reply to topic  [ 9 posts ] 

All times are UTC + 3 hours


Who is online

Users browsing this forum: No registered users and 2 guests


You cannot post new topics in this forum
You cannot reply to topics in this forum
You cannot edit your posts in this forum
You cannot delete your posts in this forum
You cannot post attachments in this forum

Search for:
Яндекс.Метрика
Powered by phpBB © 2000, 2002, 2005, 2007 phpBB Group