\m/ 80's metal \m/

Информационно-аналитический форум "80 см пыли" (In Search We Trust) "У нас никто никуда не спешит"
Me For You - http://me-4u.com
It is currently 21 Jan 2019

All times are UTC + 3 hours

Spoiler
Chat - temporary registration for foreign users (please leave your application here)







Post new topic Reply to topic  [ 7 posts ] 
Author Message
 
PostPosted: 18 Aug 2010 
ыыыы
User avatar
Joined: 17 May 2009
Posts: 952
Lоcаtion: Пушкино, МО
Age: 40
Name: Дмитрий
Image


Жанр: Hard Rock
Происхождение исполнителя: США
Год издания: 1986
Год издания данного носителя: 1986
Страна-производитель носителя: Япония
Аудио кодек: FLAC
Тип рипа: image+.cue
Битрейт аудио: lossless
Продолжительность: 42:20
Рип: Собственный
Лейбл: PASHA/CBS-SONY
Каталоговый номер: 32DP 469
Матрица: 32DP-469 11A3 +++++ (SONY)

Треклист:
1. Main Attraction 04:44
2. The Wild and The Young 03:38
3. Twilight Hotel 04:36
4. Down and Dirty 03:15
5. Rise or Fall 04:03
6. Put Up or Shut Up 04:08
7. Still of the Night 04:42
8. Bass Case 01:00
9. The Pump 04:02
10. Slave to Love 03:57
11. Helping Hands 04:14

"Куй"
REM GENRE "Hard Rock"
REM DATE 1986
REM DISCID 9B09EB0B
REM COMMENT "ExactAudioCopy v0.99pb5"
PERFORMER "Quiet Riot"
TITLE "QR III [32DP 469]"
FILE "Quiet Riot - QR III [32DP 469].flac" WAVE
TRACK 01 AUDIO
TITLE "Main Attraction"
PERFORMER "Quiet Riot"
INDEX 01 00:00:00
TRACK 02 AUDIO
TITLE "The Wild And The Young"
PERFORMER "Quiet Riot"
INDEX 01 04:44:12
TRACK 03 AUDIO
TITLE "Twilight Hotel"
PERFORMER "Quiet Riot"
INDEX 01 08:21:70
TRACK 04 AUDIO
TITLE "Down And Dirty"
PERFORMER "Quiet Riot"
INDEX 01 12:58:27
TRACK 05 AUDIO
TITLE "Rise Or Fall"
PERFORMER "Quiet Riot"
INDEX 01 16:13:52
TRACK 06 AUDIO
TITLE "Put Up Or Shut Up"
PERFORMER "Quiet Riot"
INDEX 00 20:15:50
INDEX 01 20:16:25
TRACK 07 AUDIO
TITLE "Still Of The Night"
PERFORMER "Quiet Riot"
INDEX 01 24:24:20
TRACK 08 AUDIO
TITLE "Bass Case"
PERFORMER "Quiet Riot"
INDEX 01 29:06:37
TRACK 09 AUDIO
TITLE "The Pump"
PERFORMER "Quiet Riot"
INDEX 01 30:06:60
TRACK 10 AUDIO
TITLE "Slave To Love"
PERFORMER "Quiet Riot"
INDEX 00 34:08:25
INDEX 01 34:09:00
TRACK 11 AUDIO
TITLE "Helping Hands"
PERFORMER "Quiet Riot"
INDEX 01 38:05:62


"Лог"
Exact Audio Copy V0.99 prebeta 5 from 4. May 2009

Отчёт EAC об извлечении, выполненном 18. августа 2010, 10:28

Quiet Riot / QR III [32DP 469]

Дисковод: Optiarc DVD RW AD-7200A Adapter: 1 ID: 0

Режим чтения : Достоверность
Использование точного потока : Да
Отключение кэша аудио : Да
Использование указателей C2 : Нет

Коррекция смещения при чтении : 48
Способность читать области Lead-in и Lead-out : Нет
Заполнение пропущенных сэмплов тишиной : Да
Удаление блоков с тишиной в начале и конце : Нет
При вычислениях CRC использовались нулевые сэмплы : Да
Интерфейс : Встроенный Win32-интерфейс для Win NT/2000

Выходной формат : Пользовательский кодировщик
Выбранный битрейт : 128 kBit/s
Качество : Высокий
Добавление ID3-тэга : Нет
Утилита сжатия : C:\Program Files\Exact Audio Copy\Flac\flac.exe
Дополнительные параметры : -8 -V -T "artist=%a" -T "title=%t" -T "album=%g" -T "date=%y" -T "tracknumber=%n" -T "genre=%m" -T "comment=EAC


TOC извлечённого CD

Трек | Старт | Длительность | Начальный сектор | Конечный сектор
---------------------------------------------------------------------
1 | 0:00.00 | 4:44.12 | 0 | 21311
2 | 4:44.12 | 3:37.58 | 21312 | 37644
3 | 8:21.70 | 4:36.32 | 37645 | 58376
4 | 12:58.27 | 3:15.25 | 58377 | 73026
5 | 16:13.52 | 4:02.48 | 73027 | 91224
6 | 20:16.25 | 4:07.70 | 91225 | 109819
7 | 24:24.20 | 4:42.17 | 109820 | 130986
8 | 29:06.37 | 1:00.23 | 130987 | 135509
9 | 30:06.60 | 4:02.15 | 135510 | 153674
10 | 34:09.00 | 3:56.62 | 153675 | 171436
11 | 38:05.62 | 4:14.00 | 171437 | 190486


Характеристики диапазона извлечения и сообщения об ошибках

Выбранный диапазон

Имя файла Y:\Музыка\Quiet Riot\1986 QR III\Quiet Riot - QR III [32DP 469].wav

Пиковый уровень 100.0 %
Качество диапазона 100.0 %
CRC копии 2DED906A
Копирование... OK

Ошибок не произошло


AccurateRip: сводка

Трек 1 точное извлечение (доверие 1) [D54C1F31]
Трек 2 точное извлечение (доверие 1) [18CBE129]
Трек 3 точное извлечение (доверие 1) [8D824FCF]
Трек 4 точное извлечение (доверие 1) [2EF46CE5]
Трек 5 точное извлечение (доверие 1) [AFD17C9B]
Трек 6 точное извлечение (доверие 1) [DEA6865D]
Трек 7 точное извлечение (доверие 1) [A0382C20]
Трек 8 точное извлечение (доверие 1) [ED4B3932]
Трек 9 точное извлечение (доверие 1) [794BF214]
Трек 10 точное извлечение (доверие 1) [DAE82638]
Трек 11 точное извлечение (доверие 1) [3AEC776D]

Все треки извлечены точно

Конец отчёта


Состав:
Vocals: Kevin DuBrow
Guitars: Carlos Cavazo
Bass: Chuck Wright
Drums: Frankie Banali

32DP 469

_________________
Витасу до Даймонда как Алсу до Руссоса | При переразмещении - спрашивать разрешение!!


Top
 Profile  
 
 
PostPosted: 18 Aug 2010 
Персональный статус
Joined: 14 May 2010
Posts: 236
Age: 37
Name: Денис
паша/сбс-сони :true:

Спасибо Дмитрий! :thanx: Прослушал. :meloman: Неплохо, вполне заслуженная плАтина (1x Platinum). :umnik:


Last edited by disabled on 19 Aug 2010, edited 1 time in total.

Top
 Profile  
 
 
PostPosted: 18 Aug 2010 
ыыыы
User avatar
Joined: 17 May 2009
Posts: 952
Lоcаtion: Пушкино, МО
Age: 40
Name: Дмитрий
ага Паша- Соня. А Витя позже будет- он 95й Креатор издавал))

_________________
Витасу до Даймонда как Алсу до Руссоса | При переразмещении - спрашивать разрешение!!


Top
 Profile  
 
 
PostPosted: 18 Aug 2010 
Хиппей (support team)
User avatar
Joined: 30 Jul 2007
Posts: 109705
Lоcаtion: Киев (Kyiv, UA)
Age: 45
Name: Andrey
:pray:

_________________


Top
 Profile E-mail  
 
 
PostPosted: 18 Aug 2010 
ыыыы
User avatar
Joined: 17 May 2009
Posts: 952
Lоcаtion: Пушкино, МО
Age: 40
Name: Дмитрий
аж посинел!!! :nunu:

_________________
Витасу до Даймонда как Алсу до Руссоса | При переразмещении - спрашивать разрешение!!


Top
 Profile  
 
 
PostPosted: 18 Aug 2010 
Хиппей (support team)
User avatar
Joined: 30 Jul 2007
Posts: 109705
Lоcаtion: Киев (Kyiv, UA)
Age: 45
Name: Andrey
У нас дождь :true:

_________________


Top
 Profile E-mail  
 
 
PostPosted: 18 Aug 2010 
Труъ
User avatar
Joined: 14 Jul 2010
Posts: 104
Lоcаtion: Украина, Донецк
Age: 33
Name: Санёк
Везет вам, а я из своего бункера целыми днями не вылазю. Только вечером - заправиться топливом. :bodun: :drink:

_________________
Rock 'N' Roll is the only thing that keeps me from breaking apart (c)


Top
 Profile E-mail  
 
Display posts from previous:  Sort by  
Post new topic Reply to topic  [ 7 posts ] 

All times are UTC + 3 hours


Who is online

Users browsing this forum: No registered users and 1 guest


You cannot post new topics in this forum
You cannot reply to topics in this forum
You cannot edit your posts in this forum
You cannot delete your posts in this forum
You cannot post attachments in this forum

Search for:
Яндекс.Метрика
Powered by phpBB © 2000, 2002, 2005, 2007 phpBB Group