\m/ 80's metal \m/

Информационно-аналитический форум "80 см пыли" (In Search We Trust) "У нас никто никуда не спешит"
Me For You - http://me-4u.com
It is currently 21 Jan 2019

All times are UTC + 3 hours

Spoiler
Chat - temporary registration for foreign users (please leave your application here)







Post new topic Reply to topic  [ 10 posts ] 
Author Message
 
PostPosted: 23 May 2010 
ыыыы
User avatar
Joined: 17 May 2009
Posts: 952
Lоcаtion: Пушкино, МО
Age: 40
Name: Дмитрий
Image


Жанр: Heavy/Power/Progressive Metal
Происхождение исполнителя: США
Год издания: 1986
Год издания данного носителя: 1986
Страна-производитель носителя: Япония
Аудио кодек: FLAC
Тип рипа: image+.cue
Битрейт аудио: lossless
Продолжительность: 45:46
Рип: Собственный
Лейбл: EMI
Каталоговый номер: CP32-5180
Матрица: CP32-5180 2M TO (TOSHIBA)

Треклист:
1. Walk in the Shadows 03:35
2. I Dream in Infrared 04:19
3. The Whisper 03:36
4. Gonna Get Close to You (Lisa DalBello cover) 04:38
5. The Killing Words 03:57
6. Surgical Strike 03:22
7. Neue Regel 04:56
8. Chemical Youth (We Are Rebellion) 04:15
9. London 05:06
10. Screaming in Digital 03:37
11. I Will Remember 04:25

"Куй"
REM GENRE "Progressive Rock"
REM DATE 1986
REM DISCID 9C0ABA0B
REM COMMENT "ExactAudioCopy v0.99pb5"
PERFORMER "Queensryche"
TITLE "Rage for Order [CP32-5180]"
FILE "Queensryche - Rage for Order [CP32-5180].flac" WAVE
TRACK 01 AUDIO
TITLE "Walk in the Shadows"
PERFORMER "Queensryche"
INDEX 01 00:00:00
TRACK 02 AUDIO
TITLE "I Dream in Infrared"
PERFORMER "Queensryche"
INDEX 01 03:34:50
TRACK 03 AUDIO
TITLE "The Whisper"
PERFORMER "Queensryche"
INDEX 01 07:53:30
TRACK 04 AUDIO
TITLE "Gonna Get Close to You"
PERFORMER "Queensryche"
INDEX 01 11:29:62
TRACK 05 AUDIO
TITLE "The Killing Words"
PERFORMER "Queensryche"
INDEX 01 16:07:55
TRACK 06 AUDIO
TITLE "Surgical Strike"
PERFORMER "Queensryche"
INDEX 01 20:04:27
TRACK 07 AUDIO
TITLE "Neue Regel"
PERFORMER "Queensryche"
INDEX 00 23:25:07
INDEX 01 23:26:07
TRACK 08 AUDIO
TITLE "Chemical Youth (We Are Rebellion)"
PERFORMER "Queensryche"
INDEX 01 28:22:05
TRACK 09 AUDIO
TITLE "London"
PERFORMER "Queensryche"
INDEX 01 32:37:37
TRACK 10 AUDIO
TITLE "Screaming in Digital"
PERFORMER "Queensryche"
INDEX 01 37:43:42
TRACK 11 AUDIO
TITLE "I Will Remember"
PERFORMER "Queensryche"
INDEX 01 41:20:70


"Лог"
xact Audio Copy V0.99 prebeta 5 from 4. May 2009

EAC extraction logfile from 17. May 2010, 10:55

Queensryche / Rage for Order [CP32-5180]

Used drive : Optiarc DVD RW AD-7200A Adapter: 0 ID: 0

Read mode : Secure
Utilize accurate stream : Yes
Defeat audio cache : Yes
Make use of C2 pointers : No

Read offset correction : 48
Overread into Lead-In and Lead-Out : No
Fill up missing offset samples with silence : Yes
Delete leading and trailing silent blocks : No
Null samples used in CRC calculations : Yes
Used interface : Native Win32 interface for Win NT & 2000

Used output format : User Defined Encoder
Selected bitrate : 128 kBit/s
Quality : High
Add ID3 tag : No
Command line compressor : C:\Program Files\Exact Audio Copy\Flac\flac.exe
Additional command line options : -8 -V -T "artist=%a" -T "title=%t" -T "album=%g" -T "date=%y" -T "tracknumber=%n" -T "genre=%m" -T "comment=EAC 0.9beta4 / FLAC 1.1.0 q6" %s


TOC of the extracted CD

Track | Start | Length | Start sector | End sector
---------------------------------------------------------
1 | 0:00.00 | 3:34.50 | 0 | 16099
2 | 3:34.50 | 4:18.55 | 16100 | 35504
3 | 7:53.30 | 3:36.32 | 35505 | 51736
4 | 11:29.62 | 4:37.68 | 51737 | 72579
5 | 16:07.55 | 3:56.47 | 72580 | 90326
6 | 20:04.27 | 3:21.55 | 90327 | 105456
7 | 23:26.07 | 4:55.73 | 105457 | 127654
8 | 28:22.05 | 4:15.32 | 127655 | 146811
9 | 32:37.37 | 5:06.05 | 146812 | 169766
10 | 37:43.42 | 3:37.28 | 169767 | 186069
11 | 41:20.70 | 4:25.05 | 186070 | 205949


Range status and errors

Selected range

Filename Y:\Музыка\Queensryche\1986 Rage for Order\Queensryche - Rage for Order [CP32-5180].wav

Peak level 100.0 %
Range quality 100.0 %
Copy CRC 287F40DB
Copy OK

No errors occurred

End of status report


Состав:
Geoff Tate: Vocals, Keyboards
Chris DeGarmo: Guitar
Michael Wilton: Guitar
Eddie Jackson: Bass
Scott Rockenfield: Drums, percussion
Neil Kernon: Keyboards

Народ

_________________
Витасу до Даймонда как Алсу до Руссоса | При переразмещении - спрашивать разрешение!!


Top
 Profile  
 
 
PostPosted: 23 May 2010 
Хиппей (support team)
User avatar
Joined: 30 Jul 2007
Posts: 109707
Lоcаtion: Киев (Kyiv, UA)
Age: 45
Name: Andrey
Да-да, а вот этих я знаю :true:
Спасибо, Дима :thanx:

_________________


Top
 Profile E-mail  
 
 
PostPosted: 23 May 2010 
Персональный статус
Joined: 14 May 2010
Posts: 236
Age: 37
Name: Денис
Да, знакомая банда. :smile: Треугольничек.. будем переслушивать. Спасибо большое! :gra:

Кстати, обратил внимание, что после твоего V2 (на другом ресурсе) они там, как грибы после дождя, выросли. Но мы то знаем, кто открыл сезон. :nunu:


Top
 Profile  
 
 
PostPosted: 23 May 2010 
ыыыы
User avatar
Joined: 17 May 2009
Posts: 952
Lоcаtion: Пушкино, МО
Age: 40
Name: Дмитрий
на рутракере? да пущщай растут. и что им мешало раньше?.. :umnik:

_________________
Витасу до Даймонда как Алсу до Руссоса | При переразмещении - спрашивать разрешение!!


Top
 Profile  
 
 
PostPosted: 23 May 2010 
Персональный статус
Joined: 14 May 2010
Posts: 236
Age: 37
Name: Денис
Шут их знает. Там и Queensryche сейчас сверху списка.. и Pretty Maids 2010. :haha: Чудеса, однако.


Top
 Profile  
 
 
PostPosted: 23 May 2010 
ыыыы
User avatar
Joined: 17 May 2009
Posts: 952
Lоcаtion: Пушкино, МО
Age: 40
Name: Дмитрий
Щас смотрю Ночь ползучих тварей 86-года и в кадре надпись в кабинке сортира- Stryper Rules )) Как раз скоро будет альбомчик этого года)))

_________________
Витасу до Даймонда как Алсу до Руссоса | При переразмещении - спрашивать разрешение!!


Top
 Profile  
 
 
PostPosted: 23 May 2010 
Персональный статус
Joined: 14 May 2010
Posts: 236
Age: 37
Name: Денис
Что-то знакомое.. по скринам выходит симпатичное кино. Так сказать соответствует эпохе. :nunu:


Last edited by disabled on 24 May 2010, edited 4 times in total.

Top
 Profile  
 
 
PostPosted: 23 May 2010 
ыыыы
User avatar
Joined: 17 May 2009
Posts: 952
Lоcаtion: Пушкино, МО
Age: 40
Name: Дмитрий
считается классикой )))

_________________
Витасу до Даймонда как Алсу до Руссоса | При переразмещении - спрашивать разрешение!!


Top
 Profile  
 
 
PostPosted: 24 May 2010 
Персональный статус
Joined: 14 May 2010
Posts: 236
Age: 37
Name: Денис
Image + Image = Image
Прослушал, треугольник не подкачал, уже в который раз, приятный звук.. альбом тоже ничего, хотя и не самый любимый у меня.


Top
 Profile  
 
 
PostPosted: 24 May 2010 
Хиппей (support team)
User avatar
Joined: 30 Jul 2007
Posts: 109707
Lоcаtion: Киев (Kyiv, UA)
Age: 45
Name: Andrey
disabled wrote:
Image + Image = Image

:crazy: :true:

_________________


Top
 Profile E-mail  
 
Display posts from previous:  Sort by  
Post new topic Reply to topic  [ 10 posts ] 

All times are UTC + 3 hours


Who is online

Users browsing this forum: No registered users and 1 guest


You cannot post new topics in this forum
You cannot reply to topics in this forum
You cannot edit your posts in this forum
You cannot delete your posts in this forum
You cannot post attachments in this forum

Search for:
Яндекс.Метрика
Powered by phpBB © 2000, 2002, 2005, 2007 phpBB Group