\m/ 80's metal \m/

Информационно-аналитический форум "80 см пыли" (In Search We Trust) "У нас никто никуда не спешит"
Me For You - http://me-4u.com
It is currently 14 Dec 2019

All times are UTC + 3 hours

Spoiler
Chat - temporary registration for foreign users (please leave your application here)







Post new topic Reply to topic  [ 4 posts ] 
Author Message
 
PostPosted: 12 Jan 2010 
Пионэръ
Joined: 29 Nov 2009
Posts: 16
Lоcаtion: Москва
Name: Александр
Image


Группа: Quiet Riot
Альбом: Guilty Pleasures
Год: 2001
Страна: USA
Жанр: Hard Rock
Формат: FLAC (tracks + .cue)
Битрейт аудио: lossless
Продолжительность: 50:51
Размер архива: 400 MB

Команда была образована в 1975 году вокалистом Кевином Дуброу (р. 1955), гитаристом Рэнди Роадсом (Рэндалл Уильям Роадс, р. 6 декабря 1956, Санта Моника, США, у. 19 марта 1982), барабанщиком Дрю Форсицем и басистом Келли Гарни. По предложению члена "Status quo" Рика Парфитта группа взяла себе название "Quiet riot". Первые два альбома вышли только в Японии и имели умеренный успех. В 1979 из группы к Оззи Осборну ушел Роадс, впоследствии погибший в авиакатастрофе. После этого команда была официально распущена, а Дуброу тут же основал новый проект, назвав его своим именем. В компанию к себе он взял кубинца Руди Сарзо (бас) и Фрэнки Банали (ударные). В 1982 году к ним присоединился гитарист Карлос Кавазо, и группа вернулась к названию "Quiet riot".
Заключив контракт с независимым лейблом "Pasha Records", парни записали свой самый знаменитый альбом "Metal Health". Благодаря удачной кавер-версии композиции "Slade" "Cum on Feel the Noize" диск тут же взобрался на вершину американских хит-парадов. Для многих, в том числе и для самих музыкантов это оказалось большой неожиданностью. На волне успеха своего предшественника следующий альбом "Condition Critical" тоже раскупался неплохо и достиг 15 позиции в штатовских чартах, хотя был слабее "Metal Health". В группе начались трения, в результате которых в 1985 году Сарзо (впоследствии присоединившийся к "Whitesnake") был заменен Чаком Райтом. "Quiet riot" в 1986-м записали еще один альбом, оказавшийся теперь уже на 31 месте и отметивший снижение в творческом потенциале группы. После очередных разборок из коллектива были изгнаны Дуброу и Райт. Альбом 1988 года, записанный с новым вокалистом Полом Шортино (экс–"Rough Cutt") и Сином Макнаббом на басу, еле-еле попал в конец чартов.
После этого команда была окончательно распущена. Банали позже какое-то время работал с "W.A.S.P", а остальные исчезли с музыкального горизонта. Дуброу же и Кавазо в 1991-м снова начали работать вместе в проекте "Heat". В 1993 году они вновь вернулись к вывеске "Quiet riot", и в компании с Банали и новым басистом Кенни Хиллари выпустили альбом "Terrified". Спустя два года последовал "Down to the Bone", а в 1997 году на одном из сейшенов Мэрилин Мэнсон уговорил вернуться в группу Руди Сарзо. Собравшись в своем классическом составе "Quiet riot" выпустили в 1999-м концертник "Alive and Well" и в 2001-м – студийный альбом "Guilty Pleasures".

Tracklist:
01. Vicious Circle
02. Feel the Pain
03. Rock the House
04. Shadow of Love
05. I Can't Make You Love Me
06. Feed the Machine
07. Guilty Pleasures
08. Blast from the Past
09. Let Me Be the One
10. Street Fighter
11. Fly Too High

Line Up:
Kevin DuBrow - Vocals
Carlos Cavazo - guitars
Rudy Sarzo - bass
Frankie Banali - drums

log
Exact Audio Copy V0.99 prebeta 4 from 23. January 2008

EAC extraction logfile from 16. October 2009, 22:06

Quiet Riot / Guilty Pleasures

Used drive : HL-DT-STDVDRAM GSA-T40N Adapter: 1 ID: 0

Read mode : Secure
Utilize accurate stream : Yes
Defeat audio cache : Yes
Make use of C2 pointers : No

Read offset correction : 667
Overread into Lead-In and Lead-Out : No
Fill up missing offset samples with silence : Yes
Delete leading and trailing silent blocks : No
Null samples used in CRC calculations : Yes
Used interface : Native Win32 interface for Win NT & 2000
Gap handling : Appended to previous track

Used output format : User Defined Encoder
Selected bitrate : 1024 kBit/s
Quality : High
Add ID3 tag : No
Command line compressor : C:\Program Files\Exact Audio Copy\Flac\flac.exe
Additional command line options : -8 -V -T "ARTIST=%a" -T "TITLE=%t" -T "ALBUM=%g" -T "DATE=%y" -T "TRACKNUMBER=%n" -T "GENRE=%m" -T "COMMENT=EAC FLAC -8" %s


TOC of the extracted CD

Track | Start | Length | Start sector | End sector
---------------------------------------------------------
1 | 0:00.00 | 5:29.00 | 0 | 24674
2 | 5:29.00 | 5:00.52 | 24675 | 47226
3 | 10:29.52 | 4:46.70 | 47227 | 68746
4 | 15:16.47 | 4:18.13 | 68747 | 88109
5 | 19:34.60 | 5:20.62 | 88110 | 112171
6 | 24:55.47 | 4:04.00 | 112172 | 130471
7 | 28:59.47 | 4:09.63 | 130472 | 149209
8 | 33:09.35 | 3:38.67 | 149210 | 165626
9 | 36:48.27 | 5:43.48 | 165627 | 191399
10 | 42:32.00 | 3:22.40 | 191400 | 206589
11 | 45:54.40 | 4:54.50 | 206590 | 228689


Track 1

Filename D:\Quiet Riot - Guilty Pleasures\01. Quiet Riot - Vicious Circle.wav

Pre-gap length 0:00:02.00

Peak level 96.6 %
Track quality 100.0 %
Test CRC 4F5E1EE8
Copy CRC 4F5E1EE8
Copy OK

Track 2

Filename D:\Quiet Riot - Guilty Pleasures\02. Quiet Riot - Feel The Pain.wav

Peak level 96.6 %
Track quality 100.0 %
Test CRC 25936B16
Copy CRC 25936B16
Copy OK

Track 3

Filename D:\Quiet Riot - Guilty Pleasures\03. Quiet Riot - Rock The House.wav

Peak level 96.6 %
Track quality 100.0 %
Test CRC 37457FF7
Copy CRC 37457FF7
Copy OK

Track 4

Filename D:\Quiet Riot - Guilty Pleasures\04. Quiet Riot - Shadow Of Love.wav

Peak level 96.6 %
Track quality 100.0 %
Test CRC E48F82DA
Copy CRC E48F82DA
Copy OK

Track 5

Filename D:\Quiet Riot - Guilty Pleasures\05. Quiet Riot - I Can't Make You Love Me.wav

Peak level 96.6 %
Track quality 100.0 %
Test CRC 34526988
Copy CRC 34526988
Copy OK

Track 6

Filename D:\Quiet Riot - Guilty Pleasures\06. Quiet Riot - Feed The Machine.wav

Peak level 96.6 %
Track quality 100.0 %
Test CRC 7D3ABB9C
Copy CRC 7D3ABB9C
Copy OK

Track 7

Filename D:\Quiet Riot - Guilty Pleasures\07. Quiet Riot - Guilty Pleasures.wav

Peak level 96.6 %
Track quality 100.0 %
Test CRC 372E678F
Copy CRC 372E678F
Copy OK

Track 8

Filename D:\Quiet Riot - Guilty Pleasures\08. Quiet Riot - Blast From The Past.wav

Peak level 96.6 %
Track quality 100.0 %
Test CRC A8B03D81
Copy CRC A8B03D81
Copy OK

Track 9

Filename D:\Quiet Riot - Guilty Pleasures\09. Quiet Riot - Let Me Be The One.wav

Peak level 96.6 %
Track quality 100.0 %
Test CRC 799A5D93
Copy CRC 799A5D93
Copy OK

Track 10

Filename D:\Quiet Riot - Guilty Pleasures\10. Quiet Riot - Street Fighter.wav

Peak level 96.6 %
Track quality 100.0 %
Test CRC B9ED2D05
Copy CRC B9ED2D05
Copy OK

Track 11

Filename D:\Quiet Riot - Guilty Pleasures\11. Quiet Riot - Fly Too High.wav

Peak level 96.2 %
Track quality 100.0 %
Test CRC 9ADA3B12
Copy CRC 9ADA3B12
Copy OK

No errors occurred

End of status report


Скачать:
Part 1
Part 2
Part 3
Part 4


Top
 Profile E-mail  
 
 
PostPosted: 12 Jan 2010 
5-speed satisfactor
User avatar
Joined: 16 Feb 2009
Posts: 3808
Lоcаtion: New York, USA
Age: 41
Name: Leonid
:thanx:

_________________
Death rules! Metal to all who oppose!


Top
 Profile  
 
 
PostPosted: 12 Jan 2010 
хард н хэвщик (support team)
User avatar
Joined: 02 Jun 2008
Posts: 16881
Lоcаtion: Н.Новгород
Age: 32
Name: Артем
Quote:
Альбом 1988 года, записанный с новым вокалистом Полом Шортино (экс–"Rough Cutt") и Сином Макнаббом на басу, еле-еле попал в конец чартов.
насколько я помню, из всех альбомов, этот мне нравится больше всех :pardon:


Top
 Profile  
 
 
PostPosted: 14 Jan 2010 
Пионэръ
Joined: 29 Nov 2009
Posts: 16
Lоcаtion: Москва
Name: Александр
Непопадание в чарты совершенно не значит, что альбом слабый. Более того, начиная с 90-х, подавляющее большинство дисков в стиле hard 'n' heavy вообще не попадает в общие чарты, только в специализированные.


Top
 Profile E-mail  
 
Display posts from previous:  Sort by  
Post new topic Reply to topic  [ 4 posts ] 

All times are UTC + 3 hours


Who is online

Users browsing this forum: No registered users and 1 guest


You cannot post new topics in this forum
You cannot reply to topics in this forum
You cannot edit your posts in this forum
You cannot delete your posts in this forum
You cannot post attachments in this forum

Search for:
Яндекс.Метрика
Powered by phpBB © 2000, 2002, 2005, 2007 phpBB Group