\m/ 80's metal \m/

Информационно-аналитический форум "80 см пыли" (In Search We Trust) "У нас никто никуда не спешит"
Me For You - http://me-4u.com
It is currently 14 Nov 2019

All times are UTC + 3 hours

Spoiler
Chat - temporary registration for foreign users (please leave your application here)







Post new topic Reply to topic  [ 28 posts ]  Go to page Previous  1, 2
Author Message
 
PostPosted: 05 Jan 2009 
Пионэръ
Joined: 05 Jan 2009
Posts: 27
Lоcаtion: SPb
Age: 52
Name: Макс
Quick Change - 1988 - Circus Of Death (Remaster 2007)

Image

Genre: Power/Thrash
Year: 1988
Country: USA
Codec: FLAC + CUE + LOG
Total time: 45:40
Size: 351.38 Мb


1. Will You Die - 02:57
2. Sludge - 02:50
3. Show No Mercy - 03:32
4. A.T.L. - 02:51
5. Sea Witch - 03:10
6. Leave It to the Beaver - 03:42
7. Circus of Death - 03:38
8. Battle Your Fear - 03:05
9. Injected - 02:58
10. Death Games - 04:06
11. What's Next - 03:28
12. Plowed - 02:51
13. Final Stand - 03:06
14. War Games - 03:26

MultiUp l Narod

Contains separately tracks
--------------------------------------------------------------------------------
log
Quote:
EAC extraction logfile from 21. September 2007, 22:25 for CD
Quick Change / Circus Of Death (2007 Remaster)

Used drive : BENQ DVD DD DW1620 Adapter: 1 ID: 0
Read mode : Secure with NO C2, accurate stream, NO disable cache
Read offset correction : 618
Overread into Lead-In and Lead-Out : No

Used output format : Internal WAV Routines
44.100 Hz; 16 Bit; Stereo

Other options :
Fill up missing offset samples with silence : Yes
Delete leading and trailing silent blocks : No
Installed external ASPI interface


Track 1
Filename C:\Documents and Settings\Soylent Green\Desktop\New Folder\EAC Files\Quick Change - Circus Of Death (2007 Remaster) - 01 - Will You Die.wav

Pre-gap length 0:00:02.00

Peak level 99.5 %
Track quality 99.9 %
Test CRC 4EFA8F51
Copy CRC 4EFA8F51
Copy OK

Track 2
Filename C:\Documents and Settings\Soylent Green\Desktop\New Folder\EAC Files\Quick Change - Circus Of Death (2007 Remaster) - 02 - Sludge.wav

Pre-gap length 0:00:03.65

Peak level 99.6 %
Track quality 99.9 %
Test CRC 229F1D69
Copy CRC 229F1D69
Copy OK

Track 3
Filename C:\Documents and Settings\Soylent Green\Desktop\New Folder\EAC Files\Quick Change - Circus Of Death (2007 Remaster) - 03 - Show No Mercy.wav

Pre-gap length 0:00:03.65

Peak level 99.5 %
Track quality 100.0 %
Test CRC 3E187663
Copy CRC 3E187663
Copy OK

Track 4
Filename C:\Documents and Settings\Soylent Green\Desktop\New Folder\EAC Files\Quick Change - Circus Of Death (2007 Remaster) - 04 - A.T.L..wav

Pre-gap length 0:00:03.65

Peak level 100.0 %
Track quality 100.0 %
Test CRC 4DDD6B5D
Copy CRC 4DDD6B5D
Copy OK

Track 5
Filename C:\Documents and Settings\Soylent Green\Desktop\New Folder\EAC Files\Quick Change - Circus Of Death (2007 Remaster) - 05 - Sea Witch.wav

Pre-gap length 0:00:03.65

Peak level 99.4 %
Track quality 100.0 %
Test CRC A0CB2ABE
Copy CRC A0CB2ABE
Copy OK

Track 6
Filename C:\Documents and Settings\Soylent Green\Desktop\New Folder\EAC Files\Quick Change - Circus Of Death (2007 Remaster) - 06 - Leave It To The Beaver.wav

Pre-gap length 0:00:03.65

Peak level 100.0 %
Track quality 100.0 %
Test CRC A23A174D
Copy CRC A23A174D
Copy OK

Track 7
Filename C:\Documents and Settings\Soylent Green\Desktop\New Folder\EAC Files\Quick Change - Circus Of Death (2007 Remaster) - 07 - Circus Of Death.wav

Pre-gap length 0:00:03.65

Peak level 99.2 %
Track quality 100.0 %
Test CRC 91F30B89
Copy CRC 91F30B89
Copy OK

Track 8
Filename C:\Documents and Settings\Soylent Green\Desktop\New Folder\EAC Files\Quick Change - Circus Of Death (2007 Remaster) - 08 - Battle Your Fear.wav

Pre-gap length 0:00:03.65

Peak level 99.3 %
Track quality 100.0 %
Test CRC 70F032F1
Copy CRC 70F032F1
Copy OK

Track 9
Filename C:\Documents and Settings\Soylent Green\Desktop\New Folder\EAC Files\Quick Change - Circus Of Death (2007 Remaster) - 09 - Injected.wav

Pre-gap length 0:00:03.65

Peak level 99.7 %
Track quality 99.9 %
Test CRC A95614FA
Copy CRC A95614FA
Copy OK

Track 10
Filename C:\Documents and Settings\Soylent Green\Desktop\New Folder\EAC Files\Quick Change - Circus Of Death (2007 Remaster) - 10 - Death Games.wav

Pre-gap length 0:00:03.65

Peak level 99.7 %
Track quality 100.0 %
Test CRC 2E9ED38B
Copy CRC 2E9ED38B
Copy OK

Track 11
Filename C:\Documents and Settings\Soylent Green\Desktop\New Folder\EAC Files\Quick Change - Circus Of Death (2007 Remaster) - 11 - What's Next.wav

Pre-gap length 0:00:03.65

Peak level 99.3 %
Track quality 100.0 %
Test CRC D554A458
Copy CRC D554A458
Copy OK

Track 12
Filename C:\Documents and Settings\Soylent Green\Desktop\New Folder\EAC Files\Quick Change - Circus Of Death (2007 Remaster) - 12 - Plowed.wav

Pre-gap length 0:00:03.65

Peak level 99.4 %
Track quality 100.0 %
Test CRC 98B486A7
Copy CRC 98B486A7
Copy OK

Track 13
Filename C:\Documents and Settings\Soylent Green\Desktop\New Folder\EAC Files\Quick Change - Circus Of Death (2007 Remaster) - 13 - Final Stand (Bonus Track).wav

Pre-gap length 0:00:03.65

Peak level 98.8 %
Track quality 100.0 %
Test CRC 35F52757
Copy CRC 35F52757
Copy OK

Track 14
Filename C:\Documents and Settings\Soylent Green\Desktop\New Folder\EAC Files\Quick Change - Circus Of Death (2007 Remaster) - 14 - War Games (Bonus Track).wav

Pre-gap length 0:00:03.65

Peak level 99.7 %
Track quality 100.0 %
Test CRC FA393251
Copy CRC FA393251
Copy OK

No errors occured

End of status report


cue
REM GENRE Thrash
REM DATE 1988
REM DISCID B30AB30E
REM COMMENT "ExactAudioCopy v0.95b4"
PERFORMER "Quick Change"
TITLE "Circus Of Death (2007 Remaster)"
FILE "Quick Change - Circus Of Death (2007 Remaster) - 01 - Will You Die.wav" WAVE
TRACK 01 AUDIO
TITLE "Will You Die"
PERFORMER "Quick Change"
INDEX 01 00:00:00
TRACK 02 AUDIO
TITLE "Sludge"
PERFORMER "Quick Change"
INDEX 00 02:53:07
FILE "Quick Change - Circus Of Death (2007 Remaster) - 02 - Sludge.wav" WAVE
INDEX 01 00:00:00
TRACK 03 AUDIO
TITLE "Show No Mercy"
PERFORMER "Quick Change"
INDEX 00 02:46:10
FILE "Quick Change - Circus Of Death (2007 Remaster) - 03 - Show No Mercy.wav" WAVE
INDEX 01 00:00:00
TRACK 04 AUDIO
TITLE "A.T.L."
PERFORMER "Quick Change"
INDEX 00 03:27:53
FILE "Quick Change - Circus Of Death (2007 Remaster) - 04 - A.T.L..wav" WAVE
INDEX 01 00:00:00
TRACK 05 AUDIO
TITLE "Sea Witch"
PERFORMER "Quick Change"
INDEX 00 02:47:50
FILE "Quick Change - Circus Of Death (2007 Remaster) - 05 - Sea Witch.wav" WAVE
INDEX 01 00:00:00
TRACK 06 AUDIO
TITLE "Leave It To The Beaver"
PERFORMER "Quick Change"
INDEX 00 03:06:07
FILE "Quick Change - Circus Of Death (2007 Remaster) - 06 - Leave It To The Beaver.wav" WAVE
INDEX 01 00:00:00
TRACK 07 AUDIO
TITLE "Circus Of Death"
PERFORMER "Quick Change"
INDEX 00 03:38:03
FILE "Quick Change - Circus Of Death (2007 Remaster) - 07 - Circus Of Death.wav" WAVE
INDEX 01 00:00:00
TRACK 08 AUDIO
TITLE "Battle Your Fear"
PERFORMER "Quick Change"
INDEX 00 03:33:67
FILE "Quick Change - Circus Of Death (2007 Remaster) - 08 - Battle Your Fear.wav" WAVE
INDEX 01 00:00:00
TRACK 09 AUDIO
TITLE "Injected"
PERFORMER "Quick Change"
INDEX 00 03:00:65
FILE "Quick Change - Circus Of Death (2007 Remaster) - 09 - Injected.wav" WAVE
INDEX 01 00:00:00
TRACK 10 AUDIO
TITLE "Death Games"
PERFORMER "Quick Change"
INDEX 00 02:54:33
FILE "Quick Change - Circus Of Death (2007 Remaster) - 10 - Death Games.wav" WAVE
INDEX 01 00:00:00
TRACK 11 AUDIO
TITLE "What's Next"
PERFORMER "Quick Change"
INDEX 00 04:02:20
FILE "Quick Change - Circus Of Death (2007 Remaster) - 11 - What's Next.wav" WAVE
INDEX 01 00:00:00
TRACK 12 AUDIO
TITLE "Plowed"
PERFORMER "Quick Change"
INDEX 00 03:24:10
FILE "Quick Change - Circus Of Death (2007 Remaster) - 12 - Plowed.wav" WAVE
INDEX 01 00:00:00
TRACK 13 AUDIO
TITLE "Final Stand (Bonus Track)"
PERFORMER "Quick Change"
INDEX 00 02:47:20
FILE "Quick Change - Circus Of Death (2007 Remaster) - 13 - Final Stand (Bonus Track).wav" WAVE
INDEX 01 00:00:00
TRACK 14 AUDIO
TITLE "War Games (Bonus Track)"
PERFORMER "Quick Change"
INDEX 00 03:01:48
FILE "Quick Change - Circus Of Death (2007 Remaster) - 14 - War Games (Bonus Track).wav" WAVE
INDEX 01 00:00:00

_________________
Thrash & Death Metal releaser


Top
 Profile  
 
 
PostPosted: 25 Jul 2010 
Я набрал 1000 сообщений!
User avatar
Joined: 02 Feb 2009
Posts: 1000
Lоcаtion: из Тулы
Age: 45
Name: Максим
spiralarch wrote:
Макс, дык свистни своему тезке - Макс перезальет без проблем ;)

проблема в том чтоб ему досвистеться
он куда то пропал

_________________
КМА


Top
 Profile  
 
 
PostPosted: 25 Jul 2010 
Хиппей (support team)
User avatar
Joined: 30 Jul 2007
Posts: 115529
Lоcаtion: Киев (Kyiv, UA)
Age: 46
Name: Andrey
Макс ушел на пиго :al:
К вечеру обновлю ссылки...

_________________


Top
 Profile E-mail  
 
 
PostPosted: 25 Jul 2010 
Хиппей (support team)
User avatar
Joined: 30 Jul 2007
Posts: 115529
Lоcаtion: Киев (Kyiv, UA)
Age: 46
Name: Andrey
Ссылки обновлены. Смотрим первый пост.

_________________


Top
 Profile E-mail  
 
 
PostPosted: 25 Jul 2010 
Я набрал 1000 сообщений!
User avatar
Joined: 02 Feb 2009
Posts: 1000
Lоcаtion: из Тулы
Age: 45
Name: Максим
спасибо большое

_________________
КМА


Top
 Profile  
 
 
PostPosted: 30 Jan 2014 
Трешер
User avatar
Joined: 25 Feb 2011
Posts: 1115
Lоcаtion: Харьков
Age: 43
Name: Aleksandr
Так как и обещал еще два альбома в лосях - Quick Change - 2001 & 2003


Top
 Profile E-mail  
 
 
PostPosted: 01 Feb 2014 
Персональный статус
Joined: 19 Jul 2010
Posts: 282
Lоcаtion: Москва
Name: Вадим
Не слыхал про таких, пока ознакомлюсь с 88-м годом


Top
 Profile E-mail  
 
 
PostPosted: 01 Feb 2014 
Персональный статус
Joined: 19 Jul 2010
Posts: 282
Lоcаtion: Москва
Name: Вадим
Не мое. Спасибо за ознакомление.


Top
 Profile E-mail  
 
 
PostPosted: 01 Feb 2014 
Хиппей (support team)
User avatar
Joined: 30 Jul 2007
Posts: 115529
Lоcаtion: Киев (Kyiv, UA)
Age: 46
Name: Andrey
=)

_________________


Top
 Profile E-mail  
 
Display posts from previous:  Sort by  
Post new topic Reply to topic  [ 28 posts ]  Go to page Previous  1, 2

All times are UTC + 3 hours


Who is online

Users browsing this forum: No registered users and 1 guest


You cannot post new topics in this forum
You cannot reply to topics in this forum
You cannot edit your posts in this forum
You cannot delete your posts in this forum
You cannot post attachments in this forum

Search for:
Яндекс.Метрика
cron
Powered by phpBB © 2000, 2002, 2005, 2007 phpBB Group