\m/ 80's metal \m/

Информационно-аналитический форум "80 см пыли" (In Search We Trust) "У нас никто никуда не спешит"
Me For You - http://me-4u.com
It is currently 14 Nov 2019

All times are UTC + 3 hours

Spoiler
Chat - temporary registration for foreign users (please leave your application here)







Post new topic Reply to topic  [ 14 posts ] 
Author Message
 
PostPosted: 04 Nov 2017 
Анатолий
User avatar
Joined: 18 Oct 2008
Posts: 3590
Lоcаtion: Армавир
Age: 42
Name: Анатолий
Quireboys [UK, London] - "Bitter Sweet & Twisted" - 1993

Image

Track listing:

1 Tramps and Thieves 4:28
2 White Trash Blues 4:43
3 Can't Park Here 2:49
4 King of New York 5:39
5 Don't Bite the Hand 3:22
6 Last Time 4:37
7 Debbie 4:31
8 Brother Louie 3:25
9 Ode to You (Baby Just Walk) 4:55
10 Hates to Please 5:13
11 My Saint Jude 3:40
12 Take No Revenge 4:08
13 Wild, Wild, Wild 4:31
14 Ain't Love Blind 4:19

Total length: 60:20


Last edited by Scatterbrain on 15 Dec 2017, edited 2 times in total.
Подрправлено название топика под единый стандарт


Top
 Profile E-mail  
 
 
PostPosted: 04 Nov 2017 
Персональный статус
Joined: 05 Feb 2011
Posts: 356
Lоcаtion: Russia, Novosibirsk
Age: 45
Name: Андрей
https://rutracker.org/forum/viewtopic.php?t=3944912
https://rutracker.org/forum/viewtopic.php?t=4976565
https://rutracker.org/forum/viewtopic.php?t=3945966


Top
 Profile E-mail  
 
 
PostPosted: 04 Nov 2017 
Хиппей (support team)
User avatar
Joined: 30 Jul 2007
Posts: 115529
Lоcаtion: Киев (Kyiv, UA)
Age: 46
Name: Andrey
Запрос выполнен?

_________________


Top
 Profile E-mail  
 
 
PostPosted: 04 Nov 2017 
Анатолий
User avatar
Joined: 18 Oct 2008
Posts: 3590
Lоcаtion: Армавир
Age: 42
Name: Анатолий
Я ничего не понимаю... Вчера вечером я искал на рутрекере этот альбом и не нашёл! Не пойму.. может не так поиском пользуюсь???

Тысячу извинений за беспокойство!

Спасибо за помощь и понимание!

Да, запрос выполнен конечно же!


Top
 Profile E-mail  
 
 
PostPosted: 04 Nov 2017 
семерых одним ударом
Joined: 18 Aug 2007
Posts: 4235
Lоcаtion: Владивосток
Age: 44
Name: Николай Николаевич
скачаю, раз уж нашелся)))


Top
 Profile  
 
 
PostPosted: 04 Nov 2017 
Анатолий
User avatar
Joined: 18 Oct 2008
Posts: 3590
Lоcаtion: Армавир
Age: 42
Name: Анатолий
aziel wrote:
скачаю, раз уж нашелся)))


Смотри, эта такая музыка... на любителя... салуная... я бы сказал.


Top
 Profile E-mail  
 
 
PostPosted: 04 Nov 2017 
семерых одним ударом
Joined: 18 Aug 2007
Posts: 4235
Lоcаtion: Владивосток
Age: 44
Name: Николай Николаевич
шо, не митал??!! Опять какой-нить слиз-глэм с гнусавым певуном??


Top
 Profile  
 
 
PostPosted: 04 Nov 2017 
Анатолий
User avatar
Joined: 18 Oct 2008
Posts: 3590
Lоcаtion: Армавир
Age: 42
Name: Анатолий
Я точно не знаю как охарактеризовать всё это безобразие... но певун тут хриплый. Музыка раздолбайская. Мне нравится. Есть ещё со времён польских кассет MG.


Top
 Profile E-mail  
 
 
PostPosted: 04 Nov 2017 
семерых одним ударом
Joined: 18 Aug 2007
Posts: 4235
Lоcаtion: Владивосток
Age: 44
Name: Николай Николаевич
ладно, послушаю под настроение)) Вдруг проникнусь.


Top
 Profile  
 
 
PostPosted: 04 Nov 2017 
Анатолий
User avatar
Joined: 18 Oct 2008
Posts: 3590
Lоcаtion: Армавир
Age: 42
Name: Анатолий
Вот такие они, эти пацанчики:



Это правда с другого альбома, но не беда.



А это уже с этого альбома композиция:





Top
 Profile E-mail  
 
 
PostPosted: 04 Nov 2017 
семерых одним ударом
Joined: 18 Aug 2007
Posts: 4235
Lоcаtion: Владивосток
Age: 44
Name: Николай Николаевич
Privateer wrote:
Я точно не знаю как охарактеризовать всё это безобразие

ритм енд блюз причем варианта live, Cheap Trick уж точно жестче музыки на этом альбоме.
Privateer wrote:
певун тут хриплый
Вполне сравнимо с Акселем Роузом...как мне показалось.
Короче под настроение отторжение не вызывает, хотя я бы предпочел старого доброго Стива Харли)))


Top
 Profile  
 
 
PostPosted: 15 Dec 2017 
Хиппей (support team)
User avatar
Joined: 30 Jul 2007
Posts: 115529
Lоcаtion: Киев (Kyiv, UA)
Age: 46
Name: Andrey
По-моему альбом фуфло с дудками. Или мне так сразу показалось :vic: Завтра ещё несколько раз послушаю.
Но, насколько помню, группа мне в начале 90-х нравилась :scratch:

_________________


Top
 Profile E-mail  
 
 
PostPosted: 16 Dec 2017 
Хиппей (support team)
User avatar
Joined: 30 Jul 2007
Posts: 115529
Lоcаtion: Киев (Kyiv, UA)
Age: 46
Name: Andrey
Quireboys - 1993 - Bitter Sweet & Twisted (Japan, TOCP-7048) [ape]

Image

mirror: Depos l Narod l M-Cloud l Drop

pics
Image

Image

Image

Image

Image

Image

Image

Image

Image

Image

Image

Image

Image

Image

Image

Image

Image

Image

Image

Image

Image

Image

Image

Image

Image

Image

Image

Image

Image

Image

Image


log
Exact Audio Copy V1.0 beta 3 from 29. August 2011

EAC extraction logfile from 1. May 2014, 11:06

Quireboys / Bitter Sweet & Twisted

Used drive : ATAPI iHAS122 E Adapter: 4 ID: 0

Read mode : Secure
Utilize accurate stream : Yes
Defeat audio cache : Yes
Make use of C2 pointers : No

Read offset correction : 6
Overread into Lead-In and Lead-Out : No
Fill up missing offset samples with silence : Yes
Delete leading and trailing silent blocks : No
Null samples used in CRC calculations : Yes
Used interface : Native Win32 interface for Win NT & 2000

Used output format : Internal WAV Routines
Sample format : 44.100 Hz; 16 Bit; Stereo


TOC of the extracted CD

Track | Start | Length | Start sector | End sector
---------------------------------------------------------
1 | 0:00.32 | 4:28.25 | 32 | 20156
2 | 4:28.57 | 4:43.58 | 20157 | 41439
3 | 9:12.40 | 2:49.55 | 41440 | 54169
4 | 12:02.20 | 5:39.60 | 54170 | 79654
5 | 17:42.05 | 3:22.60 | 79655 | 94864
6 | 21:04.65 | 4:37.12 | 94865 | 115651
7 | 25:42.02 | 4:31.60 | 115652 | 136036
8 | 30:13.62 | 3:25.18 | 136037 | 151429
9 | 33:39.05 | 4:55.17 | 151430 | 173571
10 | 38:34.22 | 5:13.15 | 173572 | 197061
11 | 43:47.37 | 3:40.23 | 197062 | 213584
12 | 47:27.60 | 4:08.17 | 213585 | 232201
13 | 51:36.02 | 4:31.20 | 232202 | 252546
14 | 56:07.22 | 4:19.33 | 252547 | 272004


Range status and errors

Selected range

Filename H:\!!!EAC\Quireboys - Bitter Sweet & Twisted '93\Quireboys - Bitter Sweet & Twisted.wav

Peak level 99.4 %
Extraction speed 3.4 X
Range quality 99.9 %
Test CRC ECC85EE3
Copy CRC ECC85EE3
Copy OK

No errors occurred


AccurateRip summary

Track 1 accurately ripped (confidence 3) [ED78E312] (AR v2)
Track 2 accurately ripped (confidence 3) [2CB57D05] (AR v2)
Track 3 accurately ripped (confidence 3) [16A05F55] (AR v2)
Track 4 accurately ripped (confidence 3) [22CBD1A3] (AR v2)
Track 5 accurately ripped (confidence 3) [DA87A9A6] (AR v2)
Track 6 accurately ripped (confidence 3) [CA542859] (AR v2)
Track 7 accurately ripped (confidence 3) [AA3041C0] (AR v2)
Track 8 accurately ripped (confidence 3) [28484537] (AR v2)
Track 9 accurately ripped (confidence 3) [2B0DE68B] (AR v2)
Track 10 accurately ripped (confidence 3) [805ACB20] (AR v2)
Track 11 accurately ripped (confidence 3) [77EB77AD] (AR v2)
Track 12 accurately ripped (confidence 3) [6154E5E4] (AR v2)
Track 13 accurately ripped (confidence 3) [F33E656E] (AR v2)
Track 14 accurately ripped (confidence 3) [23D1868F] (AR v2)

All tracks accurately ripped

End of status report

==== Log checksum FBE86DEDAF3796E2F1B4BBBAB6E1B83937019DA3ED9AE2600A148FD0076E4C23 ====

cue
REM GENRE "Hard Rock"
REM DATE 1993
REM DISCID C10E2A0E
REM COMMENT "ExactAudioCopy v1.0b3"
PERFORMER "Quireboys"
TITLE "Bitter Sweet & Twisted"
FILE "Quireboys - Bitter Sweet & Twisted.ape" WAVE
TRACK 01 AUDIO
TITLE "Tramps And Thieves"
PERFORMER "Quireboys"
INDEX 00 00:00:00
INDEX 01 00:00:32
TRACK 02 AUDIO
TITLE "White Trash Blues"
PERFORMER "Quireboys"
INDEX 00 04:27:65
INDEX 01 04:28:57
TRACK 03 AUDIO
TITLE "Can't Park Here"
PERFORMER "Quireboys"
INDEX 00 09:10:65
INDEX 01 09:12:40
TRACK 04 AUDIO
TITLE "King Of New York"
PERFORMER "Quireboys"
INDEX 00 12:01:55
INDEX 01 12:02:20
TRACK 05 AUDIO
TITLE "Don't Bite The Hand"
PERFORMER "Quireboys"
INDEX 00 17:42:02
INDEX 01 17:42:05
TRACK 06 AUDIO
TITLE "Last Time"
PERFORMER "Quireboys"
INDEX 00 21:04:62
INDEX 01 21:04:65
TRACK 07 AUDIO
TITLE "Debbie"
PERFORMER "Quireboys"
INDEX 00 25:41:67
INDEX 01 25:42:02
TRACK 08 AUDIO
TITLE "Brother Louie"
PERFORMER "Quireboys"
INDEX 00 30:13:60
INDEX 01 30:13:62
TRACK 09 AUDIO
TITLE "Ode To You (Baby Just Walk)"
PERFORMER "Quireboys"
INDEX 00 33:38:62
INDEX 01 33:39:05
TRACK 10 AUDIO
TITLE "Hates To Please"
PERFORMER "Quireboys"
INDEX 00 38:33:65
INDEX 01 38:34:22
TRACK 11 AUDIO
TITLE "My Saint Jude"
PERFORMER "Quireboys"
INDEX 00 43:47:35
INDEX 01 43:47:37
TRACK 12 AUDIO
TITLE "Take No Revenge"
PERFORMER "Quireboys"
INDEX 00 47:27:57
INDEX 01 47:27:60
TRACK 13 AUDIO
TITLE "Wild, Wild, Wild"
PERFORMER "Quireboys"
INDEX 00 51:36:00
INDEX 01 51:36:02
TRACK 14 AUDIO
TITLE "Ain't Love Blind"
PERFORMER "Quireboys"
INDEX 00 56:06:61
INDEX 01 56:07:22

_________________


Top
 Profile E-mail  
 
 
PostPosted: 16 Dec 2017 
Хиппей (support team)
User avatar
Joined: 30 Jul 2007
Posts: 115529
Lоcаtion: Киев (Kyiv, UA)
Age: 46
Name: Andrey
Фигня, в общем :pardon:

_________________


Top
 Profile E-mail  
 
Display posts from previous:  Sort by  
Post new topic Reply to topic  [ 14 posts ] 

All times are UTC + 3 hours


Who is online

Users browsing this forum: No registered users and 1 guest


You cannot post new topics in this forum
You cannot reply to topics in this forum
You cannot edit your posts in this forum
You cannot delete your posts in this forum
You cannot post attachments in this forum

Search for:
Яндекс.Метрика
cron
Powered by phpBB © 2000, 2002, 2005, 2007 phpBB Group