\m/ 80's metal \m/

Информационно-аналитический форум "80 см пыли" (In Search We Trust) "У нас никто никуда не спешит"
Me For You - http://me-4u.com
It is currently 21 Jan 2019

All times are UTC + 3 hours

Spoiler
Chat - temporary registration for foreign users (please leave your application here)







Post new topic Reply to topic  [ 11 posts ] 
Author Message
 
PostPosted: 30 Jan 2014 
Трешер
User avatar
Joined: 25 Feb 2011
Posts: 1062
Lоcаtion: Харьков
Age: 42
Name: Aleksandr
Quick Change 2001 - Money,Lust,& Greed
Image
Genre: Power/Thrash
Year: 2001
Country: USA
Codec: FLAC + CUE + LOG
Total time: 37:58
Size: 272 Мb

1. Face 03:54
2. My Hands 03:27
3. Here To Say 05:58
4. In My Vision 03:48
5. Money, Lust & Greed 03:10
6. Deep Within 05:22
7. Let Me 05:02
8. Live In The Now 03:52
9. Recognize 03:25

Lineup :
George Patterson Vocals
Mike McCarthy Guitars
Dubs Anderson Guitars
Chris Harbin Bass
John Kruczek Drums
log+cue
Exact Audio Copy V0.99 prebeta 5 from 4. May 2009

EAC extraction logfile from 30. January 2014, 0:52

Quick Change / Money, Lust, & Greed

Used drive : HL-DT-STDVDRAM GSA-4167B Adapter: 1 ID: 1

Read mode : Burst

Read offset correction : 0
Overread into Lead-In and Lead-Out : No
Fill up missing offset samples with silence : Yes
Delete leading and trailing silent blocks : No
Null samples used in CRC calculations : Yes
Used interface : Native Win32 interface for Win NT & 2000

Used output format : Internal WAV Routines
Sample format : 44.100 Hz; 16 Bit; Stereo


TOC of the extracted CD

Track | Start | Length | Start sector | End sector
---------------------------------------------------------
1 | 0:00.00 | 3:54.28 | 0 | 17577
2 | 3:54.28 | 3:26.63 | 17578 | 33090
3 | 7:21.16 | 5:57.52 | 33091 | 59917
4 | 13:18.68 | 3:48.38 | 59918 | 77055
5 | 17:07.31 | 3:09.67 | 77056 | 91297
6 | 20:17.23 | 5:22.24 | 91298 | 115471
7 | 25:39.47 | 5:02.32 | 115472 | 138153
8 | 30:42.04 | 3:53.50 | 138154 | 155678
9 | 34:35.54 | 3:25.24 | 155679 | 171077


Range status and errors

Selected range

Filename D:\Quick Change\Quick Change 2001 - Money,Lust,& Greed\Quick Change - Money, Lust, & Greed.wav

Timing problem 0:08:01
Timing problem 0:11:30

Peak level 97.9 %
Copy CRC F44F6CAA
Copy finished

No errors occurred

End of status report
----------------------------------------------------------------------------------------------------------------------------------------------------------------------------------------------------------------------------------------------------------------------------------------REM GENRE "Thrash Metal"
REM DATE 2001
REM DISCID 6508E909
REM COMMENT "ExactAudioCopy v0.99pb5"
PERFORMER "Quick Change"
TITLE "Money, Lust, & Greed"
FILE "Quick Change - Money, Lust, & Greed.wav" WAVE
TRACK 01 AUDIO
TITLE "Face"
PERFORMER "Quick Change"
FLAGS DCP
INDEX 01 00:00:00
TRACK 02 AUDIO
TITLE "My Hands"
PERFORMER "Quick Change"
FLAGS DCP
INDEX 01 03:54:28
TRACK 03 AUDIO
TITLE "Here To Say"
PERFORMER "Quick Change"
FLAGS DCP
INDEX 01 07:21:16
TRACK 04 AUDIO
TITLE "In My Vision"
PERFORMER "Quick Change"
FLAGS DCP
INDEX 01 13:18:68
TRACK 05 AUDIO
TITLE "Money, Lust, & Greed"
PERFORMER "Quick Change"
FLAGS DCP
INDEX 01 17:07:31
TRACK 06 AUDIO
TITLE "Deep Within"
PERFORMER "Quick Change"
FLAGS DCP
INDEX 01 20:17:23
TRACK 07 AUDIO
TITLE "Let Me"
PERFORMER "Quick Change"
FLAGS DCP
INDEX 01 25:39:47
TRACK 08 AUDIO
TITLE "Live In The Now"
PERFORMER "Quick Change"
FLAGS DCP
INDEX 01 30:42:04
TRACK 09 AUDIO
TITLE "Recognize"
PERFORMER "Quick Change"
FLAGS DCP
INDEX 01 34:35:54

yandex

Quick Change 2003 - IV Life
Image
Genre: Power/Thrash
Year: 2003
Country: USA
Codec: FLAC + CUE + LOG
Total time: 39:02
Size: 286 Мb

1. Face 04:07
2. To Live 04:18
3. In the Mirror 04:20
4. In My Dreams 05:17
5. Better Think 03:30
6. Money, Lust & Greed 02:53
7. Wide Eyes 04:31
8. To be Or Not to 03:16
9. Whipped 03:44
10. Life On the Road 03:06

Lineup :
Russ Barron Vocals
Mike McCarthy Guitars
Dubs Anderson Guitars
Chris Harbin Bass
John Kruczek Drums
log+cue
Exact Audio Copy V0.99 prebeta 5 from 4. May 2009

EAC extraction logfile from 30. January 2014, 1:03

Quick Change / IV Life

Used drive : HL-DT-STDVDRAM GSA-4167B Adapter: 1 ID: 1

Read mode : Burst

Read offset correction : 0
Overread into Lead-In and Lead-Out : No
Fill up missing offset samples with silence : Yes
Delete leading and trailing silent blocks : No
Null samples used in CRC calculations : Yes
Used interface : Native Win32 interface for Win NT & 2000

Used output format : Internal WAV Routines
Sample format : 44.100 Hz; 16 Bit; Stereo


TOC of the extracted CD

Track | Start | Length | Start sector | End sector
---------------------------------------------------------
1 | 0:00.00 | 4:06.23 | 0 | 18472
2 | 4:06.23 | 4:18.11 | 18473 | 37833
3 | 8:24.34 | 4:19.05 | 37834 | 57263
4 | 12:43.39 | 5:16.55 | 57264 | 81018
5 | 18:00.19 | 3:29.49 | 81019 | 96742
6 | 21:29.68 | 2:54.02 | 96743 | 109794
7 | 24:23.70 | 4:30.06 | 109795 | 130050
8 | 28:54.01 | 3:15.18 | 130051 | 144693
9 | 32:09.19 | 3:44.31 | 144694 | 161524
10 | 35:53.50 | 3:06.59 | 161525 | 175533


Range status and errors

Selected range

Filename D:\Quick Change\Quick Change 2003 - IV Life\Quick Change - IV Life.wav

Timing problem 0:05:46
Timing problem 0:05:54
Timing problem 0:06:33
Timing problem 0:06:39 - 0:06:40
Timing problem 0:07:07
Timing problem 0:07:14
Timing problem 0:08:02
Timing problem 0:08:10
Timing problem 0:08:29
Timing problem 0:09:13
Timing problem 0:09:49
Timing problem 0:32:25
Timing problem 0:32:39
Timing problem 0:32:42
Timing problem 0:32:51 - 0:32:52
Timing problem 0:32:55
Timing problem 0:35:50
Timing problem 0:35:54
Timing problem 0:36:04
Timing problem 0:36:26
Timing problem 0:36:33
Timing problem 0:36:38
Timing problem 0:36:48

Peak level 100.0 %
Copy CRC 469B044B
Copy finished

No errors occurred

End of status report
----------------------------------------------------------------------------------------------------------------------------------------------------------------------------------------------------------------------------------------------------------------------------------------REM GENRE "Thrash Metal"
REM DATE 2003
REM DISCID 8109240A
REM COMMENT "ExactAudioCopy v0.99pb5"
PERFORMER "Quick Change "
TITLE "IV Life"
FILE "Quick Change - IV Life.wav" WAVE
TRACK 01 AUDIO
TITLE "Track01"
PERFORMER "Quick Change "
INDEX 01 00:00:00
TRACK 02 AUDIO
TITLE "Track02"
PERFORMER "Quick Change "
INDEX 00 04:05:00
INDEX 01 04:06:23
TRACK 03 AUDIO
TITLE "Track03"
PERFORMER "Quick Change "
INDEX 00 08:22:34
INDEX 01 08:24:34
TRACK 04 AUDIO
TITLE "Track04"
PERFORMER "Quick Change "
INDEX 00 12:42:51
INDEX 01 12:43:39
TRACK 05 AUDIO
TITLE "Track05"
PERFORMER "Quick Change "
INDEX 00 17:59:57
INDEX 01 18:00:19
TRACK 06 AUDIO
TITLE "Track06"
PERFORMER "Quick Change "
INDEX 00 21:29:04
INDEX 01 21:29:68
TRACK 07 AUDIO
TITLE "Track07"
PERFORMER "Quick Change "
INDEX 00 24:21:54
INDEX 01 24:23:70
TRACK 08 AUDIO
TITLE "Track08"
PERFORMER "Quick Change "
INDEX 00 28:52:70
INDEX 01 28:54:01
TRACK 09 AUDIO
TITLE "Track09"
PERFORMER "Quick Change "
INDEX 00 32:08:04
INDEX 01 32:09:19
TRACK 10 AUDIO
TITLE "Track10"
PERFORMER "Quick Change "
INDEX 00 35:52:10
INDEX 01 35:53:50

yandex

foto
ImageImageImage


metal-archives.com


Last edited by glloomerxe on 30 Jan 2014, edited 6 times in total.

Top
 Profile E-mail  
 
 
PostPosted: 30 Jan 2014 
Генеральный thrasher
User avatar
Joined: 03 Oct 2008
Posts: 3575
Lоcаtion: Ханты-Мансийский АО
Age: 43
Name: Сергей
Саш,спасибо огромное!!! :losik: :thanx:


Top
 Profile  
 
 
PostPosted: 30 Jan 2014 
Дежурный по КУПу
User avatar
Joined: 17 Aug 2007
Posts: 5871
Age: 50
Name: Ге
:thanx: Спасибо! :true:

_________________
http://jp-mania.ru/
http://jp-tourdates.ucoz.ru/


Top
 Profile  
 
 
PostPosted: 30 Jan 2014 
Персональный статус
User avatar
Joined: 04 Mar 2012
Posts: 237
Lоcаtion: Саратов
Name: Василий
:thanx: :thanx:


Top
 Profile E-mail  
 
 
PostPosted: 30 Jan 2014 
Хиппей (support team)
User avatar
Joined: 30 Jul 2007
Posts: 109707
Lоcаtion: Киев (Kyiv, UA)
Age: 45
Name: Andrey
О как. Спасибо :thanx: :true:

mirror:

2001 - Narod l M-Cloud
2003 - Narod l M-Cloud

Надеюсь, музыка за годы не сильно изменилась... :oops: Хотя... глянул на состав и... :fingal:

_________________


Top
 Profile E-mail  
 
 
PostPosted: 30 Jan 2014 
Трешер
User avatar
Joined: 25 Feb 2011
Posts: 1062
Lоcаtion: Харьков
Age: 42
Name: Aleksandr

Надеюсь, музыка за годы не сильно изменилась...


Да нет , как раз изменилась и не в лучшую сторону :esel:

Кстати инфа на метал архиве о составе и годе выпуска альбома - Money, Lust & Greed не совсем верна :pardon:


Top
 Profile E-mail  
 
 
PostPosted: 30 Jan 2014 
Хиппей (support team)
User avatar
Joined: 30 Jul 2007
Posts: 109707
Lоcаtion: Киев (Kyiv, UA)
Age: 45
Name: Andrey
glloomerxe wrote:
Кстати инфа на метал архиве о составе и годе выпуска альбома - Money, Lust & Greed не совсем верна

А чего там именно не так? А то я еще внутрь лося не смотрел... :oops:

_________________


Top
 Profile E-mail  
 
 
PostPosted: 31 Jan 2014 
Трешер
User avatar
Joined: 25 Feb 2011
Posts: 1062
Lоcаtion: Харьков
Age: 42
Name: Aleksandr
Да так мелочи :umnik:


Top
 Profile E-mail  
 
 
PostPosted: 03 Feb 2014 
Генеральный thrasher
User avatar
Joined: 03 Oct 2008
Posts: 3575
Lоcаtion: Ханты-Мансийский АО
Age: 43
Name: Сергей
А мне альбомы нравятся.Ещё раз спасибо!


Top
 Profile  
 
 
PostPosted: 07 Feb 2014 
Alive Again
User avatar
Joined: 17 Dec 2008
Posts: 4747
Lоcаtion: Курск Воронеж Оскол
Age: 44
Name: Дмитрий
:thanx:


Top
 Profile E-mail  
 
 
PostPosted: 11 Dec 2014 
Генеральный thrasher
User avatar
Joined: 03 Oct 2008
Posts: 3575
Lоcаtion: Ханты-Мансийский АО
Age: 43
Name: Сергей
To glloomerxe - Саш,ты буклеты отсканить обещал.Или забыл уже?


Top
 Profile  
 
Display posts from previous:  Sort by  
Post new topic Reply to topic  [ 11 posts ] 

All times are UTC + 3 hours


Who is online

Users browsing this forum: No registered users and 1 guest


You cannot post new topics in this forum
You cannot reply to topics in this forum
You cannot edit your posts in this forum
You cannot delete your posts in this forum
You cannot post attachments in this forum

Search for:
Яндекс.Метрика
Powered by phpBB © 2000, 2002, 2005, 2007 phpBB Group