\m/ 80's metal \m/

Информационно-аналитический форум "80 см пыли" (In Search We Trust) "У нас никто никуда не спешит"
Me For You - http://me-4u.com
It is currently 23 Sep 2018

All times are UTC + 3 hours

Spoiler
Chat - temporary registration for foreign users (please leave your application here)







Post new topic Reply to topic  [ 28 posts ]  Go to page Previous  1, 2
Author Message
 
PostPosted: 12 Oct 2012 
хард н хэвщик (support team)
User avatar
Joined: 02 Jun 2008
Posts: 16880
Lоcаtion: Н.Новгород
Age: 31
Name: Артем
splatty wrote:
Я тоже это заметил... Но это только когда втыкаешь именно видео файл на воспроизведение целиком... А извлечённое из них аудио звучит одинаково... Как не парадоксально, но факт... И мне кстати звучание флв файла тоже понравилось больше... Но ещё раз повторюсь, извлечённые из видеофайлов аудио звучат идентично...
Серег, ты попробуй сконвертировать flv и mp4 в wav, и сравни две полученные вавки - результат идентичный?


Top
 Profile  
 
 
PostPosted: 12 Oct 2012 
хард н хэвщик (support team)
User avatar
Joined: 02 Jun 2008
Posts: 16880
Lоcаtion: Н.Новгород
Age: 31
Name: Артем
cammard wrote:
А вообще, мне интересно, неужели на Ю-тубе есть что-то столь рарное, шо его заведомо в мп3 нигде скачать нельзя?
ага, есть. примеры нужны? ;)


Top
 Profile  
 
 
PostPosted: 12 Oct 2012 
консэрваторъ
Joined: 11 Aug 2007
Posts: 15912
Lоcаtion: Псков
Age: 44
Name: Сергей
cammard wrote:
неужели на Ю-тубе есть что-то столь рарное

есть и не мало... некоторые даже в описание пишут, мол не просите меня выложить оригинальное аудио...
McKagan wrote:
flv и mp4 в wav, и сравни две полученные вавки - результат идентичный?

Счас попробуем... ну не знаю всё идентично... Вот выкладываю два вытянутых сэйвфромнетом файла для специалистов... тест... Разожмите пожалуйста в вавы своим софтом и сравните... :oops:

_________________
THRASH 'EM ALL


Top
 Profile E-mail  
 
 
PostPosted: 12 Oct 2012 
хард н хэвщик (support team)
User avatar
Joined: 02 Jun 2008
Posts: 16880
Lоcаtion: Н.Новгород
Age: 31
Name: Артем
Серег, разожми в вавки тем видео-конвертером который ты скачал недавно :oops:


Top
 Profile  
 
 
PostPosted: 12 Oct 2012 
Персональный статус
Joined: 02 Apr 2010
Posts: 223
Name: Андрей
ага, есть. примеры нужны? ;)

Не, не нужны, учитывая твои способности по выискиванию всякой рарной хрени, верю тебе на слово... :crazy:

Счас попробуем... ну не знаю всё идентично... Вот выкладываю два вытянутых сэйвфромнетом файла для специалистов... тест... Разожмите пожалуйста в вавы своим софтом и сравните... :oops:

По спектрам, mp4 незначительно лучше, на слух вроде тоже. :vic: Впрочем "шедевры" современной звукозаписи, убитые компрессией и хреновым мастерингом, можно и в мп3@56 слушать - всё равно фиг просто так от оригинальной WAV'ки отличишь. :nunu:

Серег, разожми в вавки тем видео-конвертером который ты скачал недавно :oops:


А оригинальные(без перекодировки) AAC тебе покатят? Если да, то держи: http://rusfolder.com/33097686


Top
 Profile  
 
 
PostPosted: 13 Oct 2012 
консэрваторъ
Joined: 11 Aug 2007
Posts: 15912
Lоcаtion: Псков
Age: 44
Name: Сергей
McKagan wrote:
разожми в вавки тем видео-конвертером который ты скачал недавно

Я им и разжимал - на слух всё одинаково...
cammard wrote:
оригинальные(без перекодировки) AAC

Спасибо, слушаю... :meloman: На слух идентично :dance: Что и требовалось доказать...

12 Critical Mass (Nuclear Assault cover bonus) из flv.aac
Формат : ADTS
Формат/Информация : Audio Data Transport Stream
Размер файла : 2,94 Мбайт
Режим общего битрейта : Переменный
Формат : AAC
Формат/Информация : Advanced Audio Codec
Версия формата : Version 4
Профиль формата : LC
Вид битрейта : Переменный
Каналы : 2 канала
Расположение каналов : Front: L R
Частота : 44,1 КГц
Метод сжатия : С потерями
Размер потока : 2,94 Мбайт (100%)

12 Critical Mass (Nuclear Assault cover bonus) из mp4.aac
Формат : ADTS
Формат/Информация : Audio Data Transport Stream
Размер файла : 4,38 Мбайт
Режим общего битрейта : Переменный
Формат : AAC
Формат/Информация : Advanced Audio Codec
Версия формата : Version 4
Профиль формата : LC
Вид битрейта : Переменный
Каналы : 2 канала
Расположение каналов : Front: L R
Частота : 44,1 КГц
Метод сжатия : С потерями
Размер потока : 4,38 Мбайт (100%)

_________________
THRASH 'EM ALL


Top
 Profile E-mail  
 
 
PostPosted: 13 Oct 2012 
хард н хэвщик (support team)
User avatar
Joined: 02 Jun 2008
Posts: 16880
Lоcаtion: Н.Новгород
Age: 31
Name: Артем
splatty wrote:
Я им и разжимал - на слух всё одинаково...
если я правильно тебя читал, то ты разжимал в мп3. а я говорю - разожми в вав :oops:


Top
 Profile  
 
 
PostPosted: 13 Oct 2012 
консэрваторъ
Joined: 11 Aug 2007
Posts: 15912
Lоcаtion: Псков
Age: 44
Name: Сергей
Тём, второй раз я в вав и разжимал... Вот ещё спектры .aac файлов от Андрея...

.aac из flv
Image

.aac из mp4
Image

На спектре полученном из флв-шного аак видны высокочастотные импульсные артефакты... и срез чуть чуть раньше... Да вообще конечно, о чём мы говорим!? На таком низком качестве аудио мы ничего не услышим... Так что, всем спасибо... для себя лично я определился из какого контейнера аудио вынать... и будет это мп4 :thanx:

_________________
THRASH 'EM ALL


Top
 Profile E-mail  
 
Display posts from previous:  Sort by  
Post new topic Reply to topic  [ 28 posts ]  Go to page Previous  1, 2

All times are UTC + 3 hours


Who is online

Users browsing this forum: No registered users and 2 guests


You cannot post new topics in this forum
You cannot reply to topics in this forum
You cannot edit your posts in this forum
You cannot delete your posts in this forum
You cannot post attachments in this forum

Search for:
Яндекс.Метрика
Powered by phpBB © 2000, 2002, 2005, 2007 phpBB Group