\m/ 80's metal \m/

Информационно-аналитический форум "80 см пыли" (In Search We Trust) "У нас никто никуда не спешит"
Me For You - http://me-4u.com
It is currently 17 Nov 2018

All times are UTC + 3 hours

Spoiler
Chat - temporary registration for foreign users (please leave your application here)







Post new topic Reply to topic  [ 57 posts ]  Go to page 1, 2, 3  Next
Author Message
 
PostPosted: 23 Feb 2013 
консэрваторъ
Joined: 11 Aug 2007
Posts: 16188
Lоcаtion: Псков
Age: 44
Name: Сергей
Друзья, кто чем делает слайд-шоу, если делает?.. Цель - создание диска хорошего качества, воспроизводимого, помимо писи, так же на бытовых плэерах и с обязательной возможностью добавления на него оригиналов изображений...

Я тут набросал давеча в Киностудии Windows Live (входит в состав 7-ой винды) проектик, пару часов наверное убил, и тока по окончанию сего действа обнаружил, что сохранить проект можно только в .wmv :dash: Полез в настраиваемые параметры выходного файла, там можно только поментять разрешение, общий битрейт и аудио поднастроить до 440к/48кГц... Всё :dash:

Виндовская киностудия конечно мощное приложение, множество переходов, в т.ч. и анимированных, небольшая кучка видео эффектов, на главной есть полезная вещь темы автофильма, по сути готовые шаблоны для всего слайд-шоу, но вот например длительность перехода ограничена 2 с, даже если вручную выставить например 4, циферка то отобразиться, но переходы всё-равно останутся 2 секундными...

Ранее я делал слайды в Nero7, а на новом компе тут брательник воткнул 11-ую, тыкался в ней, тоже чего-то всё не так, раньше была галочка "добавить оригинальные изображения на диск", теперь чего-то всё не так блин :dash:

_________________
THRASH 'EM ALL


Last edited by splatty on 05 Mar 2013, edited 3 times in total.

Top
 Profile E-mail  
 
 
PostPosted: 23 Feb 2013 
А может смените мне статус?..
User avatar
Joined: 22 Nov 2008
Posts: 964
Lоcаtion: Schelcovo,Russia
Age: 47
Name: Сергей
"что сохранить проект можно только в .wmv :dash: "
а если переконвертировать?


Top
 Profile  
 
 
PostPosted: 23 Feb 2013 
Хиппей (support team)
User avatar
Joined: 30 Jul 2007
Posts: 108084
Lоcаtion: Киев (Kyiv, UA)
Age: 45
Name: Andrey
splatty wrote:
Ранее я делал слайды в Nero7

Аналогично. Тож тама и делал. Но щас за ненадобностью уже года два как снёс его к ... куда подальше :pardon:

_________________


Top
 Profile E-mail  
 
 
PostPosted: 24 Feb 2013 
консэрваторъ
Joined: 11 Aug 2007
Posts: 16188
Lоcаtion: Псков
Age: 44
Name: Сергей
snider1971 wrote:
а если переконвертировать?

Если честно переконверты панически боюсь, потому что мне всё время кажется, что я потеряю в качестве, а знаний по теме не хватает... Я юзаю прогу Any Video Converter Pro. 3.3.0, дак там столько настроек :dash:

Сейчас после виндос студии имею такой файл:

.wmv | +
Общее
CompleteName : F:\СЕРГЕЙ\КИНО\Свадьба Юли и Володи.wmv
Format : Windows Media
FileSize/String : 681 Мбайт
Duration/String : 11 м.
OverallBitRate_Mode/String : Постоянный
OverallBitRate/String : 8252 Кбит/сек
OverallBitRate_Maximum/String : 24,3 Мбит/сек
Encoded_Date : UTC 2013-02-23 05:40:10.587

Видео
ID/String : 1
Format : VC-1
Format_Profile : Main
CodecID : WMV3
CodecID/Info : Windows Media Video 9
CodecID/Hint : WMV3
CodecID_Description : Windows Media Video 9 - Professional
Duration/String : 11 м.
BitRate_Mode/String : Постоянный
BitRate/String : 24,0 Мбит/сек
Width/String : 1440 пикселей
Height/String : 1080 пикселей
DisplayAspectRatio/String : 4:3
FrameRate/String : 29,970 кадров/сек
BitDepth/String : 8 бит
ScanType/String : Прогрессивная
Compression_Mode/String : С потерями
Bits-(Pixel*Frame) : 0.515
StreamSize/String : 1,93 Гбайт

Аудио
ID/String : 2
Format : WMA
Format_Profile : Pro
CodecID : 162
CodecID/Info : Windows Media Audio
CodecID_Description : Windows Media Audio 10 Professional - 128 kbps, 48 kHz, 2 channel 16 bit (A/V) 1-pass CBR
Duration/String : 11 м.
BitRate_Mode/String : Постоянный
BitRate/String : 128 Кбит/сек
Channel(s)/String : 2 канала
SamplingRate/String : 48,0 КГц
BitDepth/String : 16 бит
StreamSize/String : 10,6 Мбайт (2%)

Запёхиваю файлик в AVC... уже сразу непонятки и паника, показывает 1000 fps! Откуда спрашивается, ведь информер чётко пишет: 29,970 кадров/сек...
Выбираю выходной формат .avi с кодеком xvid... Далее, какое выставлять разрешение, какой битрейт видео, какую частоту кадров?.. Ну с опциями аудио-то более менее понятно... Но вот с видео :dash: Что бы получить сходную по качеству авишку, что ставить фиг знает... и вот интересно какой на фыходе файл получится по размеру не понятно, прога не говорит об этом ничего перед началом кодировки и это минус, помню нерка предупреждала, что мол получите такой-то размер... :( Вообщем ставлю вот так...

скринчег | +
Image

Жму кодить... и... всё задумывается на долгие лета...

_________________
THRASH 'EM ALL


Last edited by splatty on 05 Mar 2013, edited 2 times in total.

Top
 Profile E-mail  
 
 
PostPosted: 24 Feb 2013 
5cm
User avatar
Joined: 22 Dec 2009
Posts: 50
Lоcаtion: Простоквашино (Екатеринбург)
Age: 36
Name: Иван
Я все делаю в Sony Vegas. Полностью устраивает прога, обрабатывает хоть в Двд стандарт, хоть в блюрик, да ваще в любое. Но надо разбираться с ней, так смаху неочень получается. Советую ставить 9ю версию, более поздние не впечатлили пока.

_________________
https://sites.google.com/site/ivantradingpage/home


Top
 Profile E-mail  
 
 
PostPosted: 24 Feb 2013 
консэрваторъ
Joined: 11 Aug 2007
Posts: 16188
Lоcаtion: Псков
Age: 44
Name: Сергей
О, Иван, спасибо за ответ, ты уже второй человек... не, даже третий, кто советует мне эту прогу... пока что даже название меня пугает... что-то с Лас Вегасом ассоциируется... :smile:
Вот, кстати, AVC закончил тарахтеть с файликом (9 часов пыхтел :shok: ), счас посмотрим, что вышло... Явно я сделал, что-то не так...
1000 кадров в секунду :shok: | +
Общее
Полное имя : F:\СЕРГЕЙ\КИНО\КОНВЕРТ\AVI\Свадьба Юли и Володи_xvid.avi
Формат : AVI
Формат/Информация : Audio Video Interleave
Размер файла : 741 Мбайт
Продолжительность : 11 м.
Режим общего битрейта : Переменный
Общий поток : 8984 Кбит/сек
Программа кодирования : MEncoder r34118-4.2.5
Библиотека кодирования : MPlayer

Видео
Идентификатор : 0
Формат : MPEG-4 Visual
Профиль формата : Simple@L3
Параметр BVOP формата : Нет
Параметр QPel формата : Нет
Параметр GMC формата : Без точки перехода
Параметр матрицы формата : Default (H.263)
Идентификатор кодека : XVID
Идентификатор кодека/Подсказка : XviD
Продолжительность : 11 м.
Битрейт : 8594 Кбит/сек
Ширина : 1440 пикселей
Высота : 1080 пикселей
Соотношение сторон : 4:3
Частота кадров : 1000,000 кадров/сек
Цветовое пространство : YUV
Субдискретизация насыщенности : 4:2:0
Битовая глубина : 8 бит
Тип развёртки : Прогрессивная
Метод сжатия : С потерями
Бит/(Пиксели*Кадры) : 0.006
Размер потока : 709 Мбайт (96%)
Библиотека кодирования : XviD 63

Аудио
Идентификатор : 1
Формат : MPEG Audio
Версия формата : Version 1
Профиль формата : Layer 3
Режим : Joint stereo
Расширение режима : MS Stereo
Идентификатор кодека : 55
Идентификатор кодека/Подсказка : MP3
Продолжительность : 11 м.
Вид битрейта : Переменный
Битрейт : 185 Кбит/сек
Каналы : 2 канала
Частота : 44,1 КГц
Метод сжатия : С потерями
Размер потока : 15,3 Мбайт (2%)
Выравнивание : Соединение по промежуткам
Продолжительность промежутка : 26 мс. (26,13 видеокадров)
Время предзагрузки промежутка : 254 мс.
Библиотека кодирования : LAME3.98.4

Даже MPC зависает сразу... :dash: Понял! Нельзя было оставлять частоту кадров Auto... AVC и взял её как на исходнике... Но всё-равно не понятно на каком основание он отобразил на исходном файле 1000 fps изначально, если информер показывал FrameRate/String : 29,970 кадров/сек?..

_________________
THRASH 'EM ALL


Top
 Profile E-mail  
 
 
PostPosted: 24 Feb 2013 
консэрваторъ
Joined: 11 Aug 2007
Posts: 16188
Lоcаtion: Псков
Age: 44
Name: Сергей
Дубль два :dash: Перекодил в .avi с битрэйтом 5 мегабит, оставил разрешение как на оригинале и частоту кадров такую же, получил ави файлик 427 метров, т.е. если исходить из пропорции, то потерял порядка 37% в качестве... А файл этот в итоге всё-равно не разкодировался на моём бибикее, только звук идёт и всё, а видеопотока нет!.. Всё, нафек, в топку эту киновидеостудию виндосовскую... тока для ютуба ролики и делать, видать она под это дело заточена... :(

_________________
THRASH 'EM ALL


Top
 Profile E-mail  
 
 
PostPosted: 24 Feb 2013 
Partisanen - nicht kapitulieren!!
User avatar
Joined: 25 Dec 2011
Posts: 6755
Lоcаtion: партизанские леса
Age: 46
Name: Владимир
Сергей, обрати внимание на ProShow Producer - вполне серьёзный инстрУмент, заточенный именно для слайдшоу

_________________
One more beer and Heavy Metal and I'm just fine!
старовер, куле... слово "блин" - до сих пор через Ъ говорю


Top
 Profile E-mail  
 
 
PostPosted: 25 Feb 2013 
консэрваторъ
Joined: 11 Aug 2007
Posts: 16188
Lоcаtion: Псков
Age: 44
Name: Сергей
Володь, ты сам пользуешься ею? Как там с эффектами переходов, большой выбор? В какой версии работаешь? Что это за довески StylePack? Нужны ли они действительно?.. И желательно конечно ссыль на стабильный проверенный инстал... :oops:

_________________
THRASH 'EM ALL


Top
 Profile E-mail  
 
 
PostPosted: 25 Feb 2013 
Partisanen - nicht kapitulieren!!
User avatar
Joined: 25 Dec 2011
Posts: 6755
Lоcаtion: партизанские леса
Age: 46
Name: Владимир
Пользовался, делал сам типа клипцов на новые песни, пока акк на ТыТрупе не убили за неоднократное нарушение прав сексменьшинств кого-то там... переходов - море, стайпак - полезный привесок, очень дажЭ
я лично пользую - ЭТОТ вариант

_________________
One more beer and Heavy Metal and I'm just fine!
старовер, куле... слово "блин" - до сих пор через Ъ говорю


Top
 Profile E-mail  
 
 
PostPosted: 25 Feb 2013 
консэрваторъ
Joined: 11 Aug 2007
Posts: 16188
Lоcаtion: Псков
Age: 44
Name: Сергей
32warlord1 wrote:
переходов - море

:true:
Quote:
Размер: 4.87 GB

:( Что-то тяжёлая прога очень... Нерка вроде гиг весила... Вообщем заинтересовало весьма, спасибо, Вов... я конечно не люблю новый софт ставить да и не особо умею... консэрвирую я... да... но что-то новое по видео чувствую назрело... чешется...

_________________
THRASH 'EM ALL


Top
 Profile E-mail  
 
 
PostPosted: 25 Feb 2013 
Partisanen - nicht kapitulieren!!
User avatar
Joined: 25 Dec 2011
Posts: 6755
Lоcаtion: партизанские леса
Age: 46
Name: Владимир
да сама софтина несильно тяжолая - там стайлпаки весят много

_________________
One more beer and Heavy Metal and I'm just fine!
старовер, куле... слово "блин" - до сих пор через Ъ говорю


Top
 Profile E-mail  
 
 
PostPosted: 25 Feb 2013 
консэрваторъ
Joined: 11 Aug 2007
Posts: 16188
Lоcаtion: Псков
Age: 44
Name: Сергей
32warlord1 wrote:
там стайлпаки весят много

Дак может мне и не нужны на первом этапе эти стильные пакеты целофановые?.. :dash:

_________________
THRASH 'EM ALL


Top
 Profile E-mail  
 
 
PostPosted: 28 Feb 2013 
консэрваторъ
Joined: 11 Aug 2007
Posts: 16188
Lоcаtion: Псков
Age: 44
Name: Сергей
splatty wrote:
оставил разрешение как на оригинале

splatty wrote:
А файл этот в итоге всё-равно не разкодировался на моём бибикее

Вот в чём была ошибка! :dash: Спасибо Ивану подсказал сейчас через аську...
А я то оставил для авишки 1440 х 1080 а в горизонте оказывается не должно быть больше 720!..
I-vanm wrote:
Для DVD система пал идет с разрешением 720х576 независимо от соотношения сторон, хоть 4:3, хоть 16:9, и для NTSC так же, тока там вертикаль не 576, а 420. А в .avi, там надо учитывать и соотношение и размер исходника

Т.е. если у меня исходник 1440х1080 то для авишки с горизонтом 720 высоту надо выставить с таким же соотношением, т.е. в 2 раза меньше... значит получаем для моего ави надо поставить 720х540... вроде так...

_________________
THRASH 'EM ALL


Top
 Profile E-mail  
 
 
PostPosted: 28 Feb 2013 
5cm
User avatar
Joined: 22 Dec 2009
Posts: 50
Lоcаtion: Простоквашино (Екатеринбург)
Age: 36
Name: Иван
Несовсем, тут не действует принцип пополам, так как в горизонтали 4 части, а в вертикали 3 (соотношение 4:3). Тебе надо выставить 720х480, система NTSC, 30 (а не 29,97) кадров в секунду, потому как это не двд стандарт а ави файл.

_________________
https://sites.google.com/site/ivantradingpage/home


Top
 Profile E-mail  
 
 
PostPosted: 01 Mar 2013 
консэрваторъ
Joined: 11 Aug 2007
Posts: 16188
Lоcаtion: Псков
Age: 44
Name: Сергей
Я не понимаю откуда берётся число 480 :dash: даже если считать через пропорцию...

4 - 720
3 - X

X=720 х 3 / 4=540...

Исходник же у меня тоже 4:3

4 - 1440
3 - 1080

Коэффициент соотношения сторон 1,3333333333333333333333333333333.... если выставлять 720:480 то получим коэф. 1,5, т.е. исказим картинку, сожмётся по вертикали!.. Нитё не понимаю... :nea:

Кстати, Any Video Converter предлагает только два возможных варианта выставления соотношения на горизонте 720!
720х576 и 720х480

_________________
THRASH 'EM ALL


Top
 Profile E-mail  
 
 
PostPosted: 01 Mar 2013 
5cm
User avatar
Joined: 22 Dec 2009
Posts: 50
Lоcаtion: Простоквашино (Екатеринбург)
Age: 36
Name: Иван
Серега, тут не действует ваще никакой калькулятор!!! Просто надо выставить такое разрешение. Я знаю это по личному опыту, так сказать метод проб и ошибок.

_________________
https://sites.google.com/site/ivantradingpage/home


Top
 Profile E-mail  
 
 
PostPosted: 01 Mar 2013 
консэрваторъ
Joined: 11 Aug 2007
Posts: 16188
Lоcаtion: Псков
Age: 44
Name: Сергей
32warlord1 wrote:
Пользовался, делал сам

Володь, а ты бы мог дать чего посмотреть из своих слайд-шоу?..
Хочу вот ещё глянуть устройство дочушиного двд со свадьбы, для накопления опыта так сказать...
I-vanm wrote:
Тебе надо выставить 720х480, система NTSC, 30 (а не 29,97) кадров в секунду

Кстати в неро наглухо выставлено 29,97 при этих параметрах... :oops:
splatty wrote:
устройство дочушиного двд со свадьбы

Оказывается, там сделано два диска, один с оригиналами фоток на 1,18 Гб, а второй со слайд-шоу в виде DVD на 952 Мб... Я понял, что при таком малом объёме разделение на два диска сделано не случайно, ведь поскольку слайд-шоу выполнено в виде фильма на DVD, то закинуть на этот же диск оригиналы фоток не представлялось возможным - нарушилась бы структура DVD диска! Что кардинально мне не подходит :dash:

ттх DVD диска | +
Общее
Полное имя : D:\VIDEO_TS\VTS_01_1.VOB
Формат : MPEG-PS
Размер файла : 828 Мбайт
Продолжительность : 19 м.
Режим общего битрейта : Переменный
Общий поток : 5976 Кбит/сек

Видео
Идентификатор : 224 (0xE0)
Формат : MPEG Video
Версия формата : Version 2
Профиль формата : Main@Main
Параметр BVOP формата : Да
Параметр матрицы формата : Выборочная
Параметр GOP формата : M=3, N=15
Продолжительность : 19 м.
Вид битрейта : Переменный
Максимальный битрейт : 8500 Кбит/сек
Ширина : 720 пикселей
Высота : 480 пикселей
Соотношение сторон : 4:3
Частота кадров : 29,970 кадров/сек
Стандарт вещания : NTSC

Цветовое пространство : YUV
Субдискретизация насыщенности : 4:2:0
Битовая глубина : 8 бит
Тип развёртки : Чересстрочная
Порядок развёртки : Верхнее поле первое
Метод сжатия : С потерями
Основные цвета : BT.601 NTSC
Характеристики трансфера : BT.601
Коэффициенты матрицы : BT.601

Аудио #1
Идентификатор : 189 (0xBD)-128 (0x80)
Формат : AC-3
Формат/Информация : Audio Coding 3
Расширение режима : CM (complete main)
Параметр Endianness формата : Big
Режим смешивания : DVD-Video
Продолжительность : 19 м.
Вид битрейта : Постоянный
Битрейт : 256 Кбит/сек
Каналы : 2 канала
Расположение каналов : Front: L R
Частота : 48,0 КГц
Битовая глубина : 16 бит
Метод сжатия : С потерями
Размер потока : 35,4 Мбайт (4%)

Аудио #2
Идентификатор : 221 (0xDD)
Формат : MPEG Audio
Метод сжатия : С потерями

Меню

Моя цель - получить слайд-шоу и оригиналы фото на одном диске, причём весьма важно, что бы при загрузке диска в плеер (можно и в комп тоже) в первую очередь на экран вываливалось меню, через которое можно было бы запустить как с/ш, так и обычный просмотр фоток... Можно конечно и без меню, только тогда всё-равно нужен автозапуск воспроизведения... Блин, я же как-то делал в 7-ой нере :dash: SVCD там какой-то был что ли в главном меню...

_________________
THRASH 'EM ALL


Top
 Profile E-mail  
 
 
PostPosted: 02 Mar 2013 
5cm
User avatar
Joined: 22 Dec 2009
Posts: 50
Lоcаtion: Простоквашино (Екатеринбург)
Age: 36
Name: Иван
Супервидеосиди это прошлый век, качество совсем никуда. А если те нужно сделать двд с меню и чтоб еще и оригиналы туда за сунуть то это ваще никак. ДВД изначально подразумевает размер кадра не более 720 по горизонтали!!! Можно сделать просто видео файл, не двд, хоть мпег2, хоть ави, и закинуть это все на диск с оригиналами фото и записать в виде дата-сиди (диск с данными), но менюхи не будет.

_________________
https://sites.google.com/site/ivantradingpage/home


Top
 Profile E-mail  
 
 
PostPosted: 03 Mar 2013 
консэрваторъ
Joined: 11 Aug 2007
Posts: 16188
Lоcаtion: Псков
Age: 44
Name: Сергей
I-vanm wrote:
Супервидеосиди это прошлый век, качество совсем никуда

Согласен, достал поизучать с пыльных антресолей свои старые работы, качество жесть... ещё и разрешение меня удивило 480х480...
I-vanm wrote:
но менюхи не будет

А вот здесь и здесь пишут, что мол можно так сделать... Основне моменты: экспортируем готовый DVD фильм не сразу на диск а в папку на винт, пишем диск и добавляем в его корень папку PHOTO рядом с папками AUDIO_TS и VIDEO_TS, название папки с фотками должно быть написано по английски и не иметь в своём название больше 8 букв... И как правильно подмечено, писать диск нужно не как DVD-video, а как DVD с данными, т.е. писалка Clon-DVD, например, для этого дела не подойдёт, нужно просто записать созданные три папки на диск, как обычные данные... Да вот, даже нашёл у жены такой диск с Петергофа... Вставляешь в плэер, вываливается меню, навигация как на стандартном DVD, вставляешь в комп, видишь три папки AUDIO_TS, VIDEO_TS и PHOTO... Сейчас попробую это сделать...

_________________
THRASH 'EM ALL


Top
 Profile E-mail  
 
Display posts from previous:  Sort by  
Post new topic Reply to topic  [ 57 posts ]  Go to page 1, 2, 3  Next

All times are UTC + 3 hours


Who is online

Users browsing this forum: No registered users and 2 guests


You cannot post new topics in this forum
You cannot reply to topics in this forum
You cannot edit your posts in this forum
You cannot delete your posts in this forum
You cannot post attachments in this forum

Search for:
Яндекс.Метрика
Powered by phpBB © 2000, 2002, 2005, 2007 phpBB Group