\m/ 80's metal \m/

Информационно-аналитический форум "80 см пыли" (In Search We Trust) "У нас никто никуда не спешит"
Me For You - http://me-4u.com
It is currently 29 Oct 2020

All times are UTC + 3 hours

Spoiler
Chat - temporary registration for foreign users (please leave your application here)







Post new topic Reply to topic  [ 3 posts ] 
Author Message
 
PostPosted: 10 Apr 2011 
Прокъмитолист
User avatar
Joined: 12 Aug 2007
Posts: 6776
Lоcаtion: Санктъ-Петербуркъ
Age: 53
Name: Олекъ
Power [1995] Justice Of Fire (Japan)
Sony Records [SRCS 7731]

Image

Genre: US power metal
Country: USA
Contents: flac/cue/log/covers
Size: 370 MB

Tracklist:
01. Prelude To Apocalypse
02. Hands Over Time
03. Firewalk
04. Rising Son (Through The Eyes Of God)
05. An Evil Presence
06. Deceiver Of Truth
07. The Vision
08. Justice Of Fire
09. Eternally
. . . bonus tracks:
10. Above & Beyond
11. Burning Desire

Playtime: 50:25

Lineup:
Alan Tecchio - vocals
Daniel L. Dalley - all electric, acoustic, bass and synth guitars
Mike Watt - drums

EAC log
Code:
Exact Audio Copy V1.0 beta 1 from 15. November 2010

EAC extraction logfile from 7. April 2011, 1:34

Power / Justice Of Fire (Japan)

Used drive  : Optiarc DVD RW AD-7240S   Adapter: 2  ID: 0

Read mode               : Secure
Utilize accurate stream : Yes
Defeat audio cache      : Yes
Make use of C2 pointers : No

Read offset correction                      : 48
Overread into Lead-In and Lead-Out          : No
Fill up missing offset samples with silence : Yes
Delete leading and trailing silent blocks   : No
Null samples used in CRC calculations       : Yes
Used interface                              : Native Win32 interface for Win NT & 2000

Used output format : Internal WAV Routines
Sample format      : 44.100 Hz; 16 Bit; Stereo


TOC of the extracted CD

     Track |   Start  |  Length  | Start sector | End sector
    ---------------------------------------------------------
        1  |  0:00.00 |  2:09.60 |         0    |     9734   
        2  |  2:09.60 |  3:48.00 |      9735    |    26834   
        3  |  5:57.60 |  5:03.70 |     26835    |    49629   
        4  | 11:01.55 |  6:14.25 |     49630    |    77704   
        5  | 17:16.05 |  2:07.65 |     77705    |    87294   
        6  | 19:23.70 |  4:58.55 |     87295    |   109699   
        7  | 24:22.50 |  3:49.37 |    109700    |   126911   
        8  | 28:12.12 |  8:36.10 |    126912    |   165621   
        9  | 36:48.22 |  3:19.55 |    165622    |   180601   
       10  | 40:08.02 |  7:04.30 |    180602    |   212431   
       11  | 47:12.32 |  3:13.18 |    212432    |   226924   


Range status and errors

Selected range

     Filename D:\spiralarch\Power - Justice Of Fire (Japan).wav

     Peak level 100.0 %
     Extraction speed 0.2 X
     Range quality 100.0 %
     Copy CRC 09A1BA48
     Copy OK

No errors occurred

 
AccurateRip summary
 
Track  1  accurately ripped (confidence 1)  [94E11B4A]
Track  2  accurately ripped (confidence 1)  [C3C06FE8]
Track  3  accurately ripped (confidence 1)  [EC9DE4DB]
Track  4  accurately ripped (confidence 1)  [D4FA0B90]
Track  5  accurately ripped (confidence 1)  [84CAF5DB]
Track  6  accurately ripped (confidence 1)  [870F4B04]
Track  7  accurately ripped (confidence 1)  [9C032771]
Track  8  accurately ripped (confidence 1)  [3739E9E9]
Track  9  accurately ripped (confidence 1)  [9AFA00D4]
Track 10  accurately ripped (confidence 1)  [57D63B3B]
Track 11  accurately ripped (confidence 1)  [80C96DF1]
 
All tracks accurately ripped

End of status report

==== Log checksum 9073F8C55E4382F4BF24D5D231BAB27CEC9373157B5EDED28E490E43C0451BD8 ====

Дубль моего релиза с ММТ для тех, кто до сих пор не научился юзать ослика и торренты ;)

_________________
прокъметол - это музыко, от которово есть прок (ы)


Top
 Profile  
 
 
PostPosted: 10 Apr 2011 
Работнечег
User avatar
Joined: 28 Aug 2007
Posts: 6363
Lоcаtion: г. Москва
Age: 31
Name: Дима
Спасибо огромное! :true:


Top
 Profile E-mail  
 
 
PostPosted: 10 Apr 2011 
Хиппей (support team)
User avatar
Joined: 30 Jul 2007
Posts: 119447
Lоcаtion: Киев (Kyiv, UA)
Age: 47
Name: Andrey
:thanx:
mirror: MultiUp l Narod

_________________


Top
 Profile E-mail  
 
Display posts from previous:  Sort by  
Post new topic Reply to topic  [ 3 posts ] 

All times are UTC + 3 hours


Who is online

Users browsing this forum: No registered users and 3 guests


You cannot post new topics in this forum
You cannot reply to topics in this forum
You cannot edit your posts in this forum
You cannot delete your posts in this forum
You cannot post attachments in this forum

Search for:
Яндекс.Метрика
Powered by phpBB © 2000, 2002, 2005, 2007 phpBB Group