\m/ 80's metal \m/

Информационно-аналитический форум "80 см пыли" (In Search We Trust) "У нас никто никуда не спешит"
Me For You - http://me-4u.com
It is currently 28 Oct 2020

All times are UTC + 3 hours

Spoiler
Chat - temporary registration for foreign users (please leave your application here)







Post new topic Reply to topic  [ 18 posts ] 
Author Message
 
PostPosted: 07 Jan 2011 
Thrasher
User avatar
Joined: 07 Oct 2007
Posts: 2782
Lоcаtion: Russia, Moscow
Age: 36
Name: Drunk & Evil
хотелось бы попробовать отыскать хард-рок бэнд Pax из Перу

треклист

01-Extriminio
02-Radar de Amor

phpBB [youtube]

_________________
ВОДКА, БАБЫ И БЛЮЗ / 40° till death... :bodun:
One time we saw some hookers, but when we got closer, we realised it was Mötley Crüe. ©


Top
 Profile  
 
 
PostPosted: 11 Jan 2011 
спирт 100%
User avatar
Joined: 22 Sep 2008
Posts: 4594
Age: 49
Name: Саня
Этот single, был в свободном доступе,наверняка где то и щас бегает.


Top
 Profile  
 
 
PostPosted: 13 Jan 2011 
Хиппей (support team)
User avatar
Joined: 30 Jul 2007
Posts: 119445
Lоcаtion: Киев (Kyiv, UA)
Age: 47
Name: Andrey
Был... http://www.google.com/search?hl=ru&clie ... =&gs_rfai=

_________________


Top
 Profile E-mail  
 
 
PostPosted: 13 Jan 2011 
Хиппей (support team)
User avatar
Joined: 30 Jul 2007
Posts: 119445
Lоcаtion: Киев (Kyiv, UA)
Age: 47
Name: Andrey
Хм, есть http://www.4shared.com/audio/70NuXXFC/8 ... _amor.html

_________________


Top
 Profile E-mail  
 
 
PostPosted: 13 Jan 2011 
Хиппей (support team)
User avatar
Joined: 30 Jul 2007
Posts: 119445
Lоcаtion: Киев (Kyiv, UA)
Age: 47
Name: Andrey
А, фигня, в ослике нашёлся лось за 70-й год :dance: Качаю.

_________________


Top
 Profile E-mail  
 
 
PostPosted: 13 Jan 2011 
Thrasher
User avatar
Joined: 07 Oct 2007
Posts: 2782
Lоcаtion: Russia, Moscow
Age: 36
Name: Drunk & Evil
:thanx:

_________________
ВОДКА, БАБЫ И БЛЮЗ / 40° till death... :bodun:
One time we saw some hookers, but when we got closer, we realised it was Mötley Crüe. ©


Top
 Profile  
 
 
PostPosted: 13 Jan 2011 
Хиппей (support team)
User avatar
Joined: 30 Jul 2007
Posts: 119445
Lоcаtion: Киев (Kyiv, UA)
Age: 47
Name: Andrey
Эээ, Кирюх, так на полном альбоме этих композиций нет. Кстати, прослушал Радар де Амор - эъто ж кавер на... не пойму кого :shok:

_________________


Top
 Profile E-mail  
 
 
PostPosted: 31 Oct 2011 
Rara avis
User avatar
Joined: 27 Jan 2009
Posts: 5713
Name: .
phpBB [youtube]


Top
 Profile E-mail  
 
 
PostPosted: 01 Nov 2011 
Хиппей (support team)
User avatar
Joined: 30 Jul 2007
Posts: 119445
Lоcаtion: Киев (Kyiv, UA)
Age: 47
Name: Andrey
И вот теперь что делать - запрос закрыт? :vic:

_________________


Top
 Profile E-mail  
 
 
PostPosted: 01 Nov 2011 
консэрваторъ
User avatar
Joined: 11 Aug 2007
Posts: 17662
Lоcаtion: Псков
Age: 46
Name: Сергей
Дак сингл не найден...

_________________
THRASH 'EM ALL


Top
 Profile E-mail  
 
 
PostPosted: 01 Nov 2011 
Rara avis
User avatar
Joined: 27 Jan 2009
Posts: 5713
Name: .
splatty wrote:
Дак сингл не найден...

Обе песни из сингла, хоть и на youtube, но найдены.
Или нужен винил-рип?


Top
 Profile E-mail  
 
 
PostPosted: 01 Nov 2011 
Хиппей (support team)
User avatar
Joined: 30 Jul 2007
Posts: 119445
Lоcаtion: Киев (Kyiv, UA)
Age: 47
Name: Andrey
Хз, что именно нужно, ну и нужно ли вообще. Кирюха не скоро здесь появится :pardon:

_________________


Top
 Profile E-mail  
 
 
PostPosted: 01 Nov 2011 
консэрваторъ
User avatar
Joined: 11 Aug 2007
Posts: 17662
Lоcаtion: Псков
Age: 46
Name: Сергей
Dare-Devilina wrote:
хоть и на youtube

но ссылки на скачивание нет, значит запрос не закрыт...

_________________
THRASH 'EM ALL


Top
 Profile E-mail  
 
 
PostPosted: 02 Nov 2013 
спирт 100%
User avatar
Joined: 22 Sep 2008
Posts: 4594
Age: 49
Name: Саня
Pax - Pax - Remastered 2006 - 192kbps

Image

phpBB [youtube]


1 A Storyless Junkie
2 Rock An' Ball
3 Green Paper (Toilet)
4 Sittin' On My Head
5 Deep Death
6 For Cecilia
7 Pig Pen Boogie
8 Shake Your Ass

Bonus Tracks:
9 Firefly 4:57
10 Resurrection Of The Sun 3:19
11 Smoke On The Water 5:24
12 Exorcismo 4:09
13 Dark Rose 5:20
14 Radar Love 4:31
15 Mr. Skin

http://yadi.sk/d/n7GAINgeC34b9


Top
 Profile  
 
 
PostPosted: 03 Nov 2013 
Хиппей (support team)
User avatar
Joined: 30 Jul 2007
Posts: 119445
Lоcаtion: Киев (Kyiv, UA)
Age: 47
Name: Andrey
:thanx:

mirror: M-Cloud l Narod

Сдается мне оба трэка с сингла есть в бонусах только с чуть иными названиями.
Так что явно запрос можно закрывать :dance:

_________________


Top
 Profile E-mail  
 
 
PostPosted: 05 Nov 2013 
Хиппей (support team)
User avatar
Joined: 30 Jul 2007
Posts: 119445
Lоcаtion: Киев (Kyiv, UA)
Age: 47
Name: Andrey
Фигня какая-то этот перуанский хард-рок :yyy:
Единственные достойные трэки как раз на видео и представлены.
Остальное всё в духе 70-х.

_________________


Top
 Profile E-mail  
 
 
PostPosted: 06 Feb 2017 
Хиппей (support team)
User avatar
Joined: 30 Jul 2007
Posts: 119445
Lоcаtion: Киев (Kyiv, UA)
Age: 47
Name: Andrey
Pax - 1970 - Dark Rose [ape]

Image Image


mirror: iFolder l M-Cloud l Narod

Image Image

log
EAC extraction logfile from 4. February 2007, 23:53 for CD
Pax / Dark Rose

Used drive : PHILIPS PCDV6116 Adapter: 1 ID: 1
Read mode : Secure with NO C2, accurate stream, disable cache
Read offset correction : 691
Overread into Lead-In and Lead-Out : No

Used output format : Monkey's Audio Lossless Encoder v3.99 DLL
Fast Lossless Compression

Other options :
Fill up missing offset samples with silence : Yes
Delete leading and trailing silent blocks : No
Installed external ASPI interface


Range status and errors
Selected range
Filename C:\HQshare\Pax - Dark Rose\Pax - Dark Rose.ape

Peak level 87.4 %
Range quality 100.0 %
CRC 82DBEB56
Copy OK

No errors occured

End of status report

cue
REM GENRE "Psychedelic Rock"
REM DATE 1970
REM DISCID 920CFD0C
REM COMMENT "ExactAudioCopy v0.95b3"
PERFORMER "Pax"
TITLE "Dark Rose"
FILE "Pax - Dark Rose.ape" WAVE
TRACK 01 AUDIO
TITLE "Firefly"
PERFORMER "Pax"
INDEX 01 00:00:00
TRACK 02 AUDIO
TITLE "Resurrection Of The Sun"
PERFORMER "Pax"
INDEX 00 04:56:73
INDEX 01 04:58:71
TRACK 03 AUDIO
TITLE "Smoke On The Water"
PERFORMER "Pax"
INDEX 00 08:18:02
INDEX 01 08:20:00
TRACK 04 AUDIO
TITLE "Exorcism"
PERFORMER "Pax"
INDEX 00 13:44:46
INDEX 01 13:46:44
TRACK 05 AUDIO
TITLE "Dark Rose"
PERFORMER "Pax"
INDEX 00 17:55:61
INDEX 01 17:57:59
TRACK 06 AUDIO
TITLE "radar Love"
PERFORMER "Pax"
INDEX 00 23:18:13
INDEX 01 23:20:11
TRACK 07 AUDIO
TITLE "Mr. Skin"
PERFORMER "Pax"
INDEX 00 27:51:22
INDEX 01 27:53:20
TRACK 08 AUDIO
TITLE "Storyless Junkie"
PERFORMER "Pax"
INDEX 00 30:47:41
INDEX 01 30:49:39
TRACK 09 AUDIO
TITLE "Sittin' On My Head"
PERFORMER "Pax"
INDEX 00 36:17:27
INDEX 01 36:19:25
TRACK 10 AUDIO
TITLE "Deep Death"
PERFORMER "Pax"
INDEX 00 40:56:28
INDEX 01 40:58:25
TRACK 11 AUDIO
TITLE "Pig Pen Boogie"
PERFORMER "Pax"
INDEX 00 46:28:44
INDEX 01 46:30:42
TRACK 12 AUDIO
TITLE "Rock An' Ball"
PERFORMER "Pax"
INDEX 00 50:52:65
INDEX 01 50:54:63

_________________


Top
 Profile E-mail  
 
 
PostPosted: 06 Feb 2017 
Хиппей (support team)
User avatar
Joined: 30 Jul 2007
Posts: 119445
Lоcаtion: Киев (Kyiv, UA)
Age: 47
Name: Andrey
Хм, или это разные группы? :oops:

_________________


Top
 Profile E-mail  
 
Display posts from previous:  Sort by  
Post new topic Reply to topic  [ 18 posts ] 

All times are UTC + 3 hours


Who is online

Users browsing this forum: No registered users and 1 guest


You cannot post new topics in this forum
You cannot reply to topics in this forum
You cannot edit your posts in this forum
You cannot delete your posts in this forum
You cannot post attachments in this forum

Search for:
Яндекс.Метрика
Powered by phpBB © 2000, 2002, 2005, 2007 phpBB Group