\m/ 80's metal \m/

Информационно-аналитический форум "80 см пыли" (In Search We Trust) "У нас никто никуда не спешит"
Me For You - http://me-4u.com
It is currently 29 Oct 2020

All times are UTC + 3 hours

Spoiler
Chat - temporary registration for foreign users (please leave your application here)







Post new topic Reply to topic  [ 16 posts ] 
Author Message
 
PostPosted: 27 Dec 2010 
Я набрал 1000 сообщений!
User avatar
Joined: 02 Feb 2009
Posts: 1000
Lоcаtion: из Тулы
Age: 46
Name: Максим
Image

Год: 2004
Стиль: Heavy/Power Metal
Страна: Canada (Toronto, Ontario)
Формат: Flac ( image + cue ) , log , covers
Размер: 259 mb (3%)


Трэклист:
1. Unleash the Fury 05:03
2. Spread the Mind 03:36
3. Guns and Whiskey 03:31
4. Muso in a Bottle 04:40
5. Adulteress 03:53
6. Wheels of Justice 03:03
7. Shock Therapy 02:41
8. Templars of Hate 02:56
9. Penetrator 02:42

Total playing time 32:05


Состав:
Bess Ross - Guitars
Maxel Black - Vocals (Mastery (Can), Krakatoa (Can))
David T Green - Bass
Simon Vanderzand - Drums


Мне очень понравилось и напомнило Judas Priest, поэтому и решил сюда выложить

http://narod.ru/disk/2138991001/Penetrator%20-%20Unleash%20The%20Fury.rar.html

log
Exact Audio Copy V0.99 prebeta 5 from 4. May 2009

EAC extraction logfile from 25. December 2010, 16:28

Penetrator / Unleash The Fury

Used drive : TSSTcorpCDDVDW SH-S203D Adapter: 1 ID: 1

Read mode : Secure
Utilize accurate stream : Yes
Defeat audio cache : Yes
Make use of C2 pointers : No

Read offset correction : 6
Overread into Lead-In and Lead-Out : No
Fill up missing offset samples with silence : Yes
Delete leading and trailing silent blocks : No
Null samples used in CRC calculations : Yes
Used interface : Native Win32 interface for Win NT & 2000

Used output format : Internal WAV Routines
Sample format : 44.100 Hz; 16 Bit; Stereo


TOC of the extracted CD

Track | Start | Length | Start sector | End sector
---------------------------------------------------------
1 | 0:00.00 | 5:03.45 | 0 | 22769
2 | 5:03.45 | 3:36.17 | 22770 | 38986
3 | 8:39.62 | 3:31.28 | 38987 | 54839
4 | 12:11.15 | 4:40.69 | 54840 | 75908
5 | 16:52.09 | 3:53.24 | 75909 | 93407
6 | 20:45.33 | 3:03.18 | 93408 | 107150
7 | 23:48.51 | 2:41.39 | 107151 | 119264
8 | 26:30.15 | 2:56.64 | 119265 | 132528
9 | 29:27.04 | 2:42.39 | 132529 | 144717


Range status and errors

Selected range

Filename D:\На телефон\НОВОЕ\Penetrator - Unleash The Fury.wav

Peak level 98.8 %
Range quality 99.9 %
Test CRC 4C6FD9C0
Copy CRC 4C6FD9C0
Copy OK

No errors occurred


AccurateRip summary

Track 1 not present in database
Track 2 not present in database
Track 3 not present in database
Track 4 not present in database
Track 5 not present in database
Track 6 not present in database
Track 7 not present in database
Track 8 not present in database
Track 9 not present in database

None of the tracks are present in the AccurateRip database

End of status report

cue
REM GENRE "Heavy/Power Metal"
REM DATE 2004
REM SOURCE "KMA"
REM DISCID 63078909
REM COMMENT "ExactAudioCopy v0.99pb5"
PERFORMER "Penetrator"
TITLE "Unleash The Fury"
FILE "Penetrator - Unleash The Fury.flac" WAVE
TRACK 01 AUDIO
TITLE "Track01"
PERFORMER "Penetrator"
INDEX 01 00:00:00
TRACK 02 AUDIO
TITLE "Track02"
PERFORMER "Penetrator"
INDEX 01 05:03:45
TRACK 03 AUDIO
TITLE "Track03"
PERFORMER "Penetrator"
INDEX 01 08:39:62
TRACK 04 AUDIO
TITLE "Track04"
PERFORMER "Penetrator"
INDEX 01 12:11:15
TRACK 05 AUDIO
TITLE "Track05"
PERFORMER "Penetrator"
INDEX 01 16:52:09
TRACK 06 AUDIO
TITLE "Track06"
PERFORMER "Penetrator"
INDEX 01 20:45:33
TRACK 07 AUDIO
TITLE "Track07"
PERFORMER "Penetrator"
INDEX 01 23:48:51
TRACK 08 AUDIO
TITLE "Track08"
PERFORMER "Penetrator"
INDEX 01 26:30:15
TRACK 09 AUDIO
TITLE "Track09"
PERFORMER "Penetrator"
INDEX 01 29:27:04

spectrum
Image

_________________
КМА


Top
 Profile  
 
 
PostPosted: 27 Dec 2010 
Прокъмитолист
User avatar
Joined: 12 Aug 2007
Posts: 6776
Lоcаtion: Санктъ-Петербуркъ
Age: 53
Name: Олекъ
заберу. спасибо, Макс! :true:

_________________
прокъметол - это музыко, от которово есть прок (ы)


Top
 Profile  
 
 
PostPosted: 27 Dec 2010 
Хиппей (support team)
User avatar
Joined: 30 Jul 2007
Posts: 119447
Lоcаtion: Киев (Kyiv, UA)
Age: 47
Name: Andrey
:thanx:

_________________


Top
 Profile E-mail  
 
 
PostPosted: 28 Dec 2010 
Пионэръ
User avatar
Joined: 08 Nov 2010
Posts: 43
Lоcаtion: Россия
Name: Юрий
Спасибо,забираю!


Top
 Profile E-mail  
 
 
PostPosted: 04 Jan 2011 
труъ антисионист
User avatar
Joined: 01 Aug 2007
Posts: 4544
Lоcаtion: Откуда и большинство из нас
Age: 39
Name: Дядя Вова
Неплохой альбом, местами Пейнкиллер Пристовский напоминает.

_________________
Image
Image


Top
 Profile  
 
 
PostPosted: 23 Jul 2012 
Труъ
User avatar
Joined: 05 Oct 2008
Posts: 194
Lоcаtion: Saint Petersburg
Age: 47
Name: Jesse
Пенетратор помер. :esel: Придется довольствоваться одноименным фильмом :cry:


Top
 Profile  
 
 
PostPosted: 24 Jul 2012 
Хиппей (support team)
User avatar
Joined: 30 Jul 2007
Posts: 119447
Lоcаtion: Киев (Kyiv, UA)
Age: 47
Name: Andrey
Явно на торренте есть...

_________________


Top
 Profile E-mail  
 
 
PostPosted: 24 Jul 2012 
Хиппей (support team)
User avatar
Joined: 30 Jul 2007
Posts: 119447
Lоcаtion: Киев (Kyiv, UA)
Age: 47
Name: Andrey
Ага... http://rutracker.org/forum/viewtopic.php?t=3341737 :bore:

Quote:
Полный источник: не было 4 дня

_________________


Top
 Profile E-mail  
 
 
PostPosted: 24 Jul 2012 
Труъ
User avatar
Joined: 05 Oct 2008
Posts: 194
Lоcаtion: Saint Petersburg
Age: 47
Name: Jesse
Scatterbrain wrote:
Ага... http://rutracker.org/forum/viewtopic.php?t=3341737 :bore:

Quote:
Полный источник: не было 4 дня


Ну то на рутрекере есть, только меня там нет.


Top
 Profile  
 
 
PostPosted: 26 Jul 2012 
***


Last edited by Вася_металлист_2012 on 14 Dec 2012, edited 1 time in total.

Top
  
 
 
PostPosted: 26 Jul 2012 
Труъ
User avatar
Joined: 05 Oct 2008
Posts: 194
Lоcаtion: Saint Petersburg
Age: 47
Name: Jesse
Вася_металлист_2012 wrote:
Omarao wrote:
Scatterbrain wrote:
Ну то на рутрекере есть, только меня там нет.


Правильно, там истерических докеров не любят

Да, там любят только таких воинов, как ты.


Top
 Profile  
 
 
PostPosted: 27 Jul 2012 
Хиппей (support team)
User avatar
Joined: 30 Jul 2007
Posts: 119447
Lоcаtion: Киев (Kyiv, UA)
Age: 47
Name: Andrey
Пока источник завис на 33.5 %.
Так что подождём-с немного.

Или позже перелью с винтов у себя :vic:

_________________


Top
 Profile E-mail  
 
 
PostPosted: 27 Jul 2012 
Труъ
User avatar
Joined: 05 Oct 2008
Posts: 194
Lоcаtion: Saint Petersburg
Age: 47
Name: Jesse
Scatterbrain wrote:
Пока источник завис на 33.5 %.
Так что подождём-с немного.

Или позже перелью с винтов у себя :vic:


Да не к спеху это, да и собственно тут никто никуда не спешит, и отлично.


Top
 Profile  
 
 
PostPosted: 27 Jul 2012 
Прокъмитолист
User avatar
Joined: 12 Aug 2007
Posts: 6776
Lоcаtion: Санктъ-Петербуркъ
Age: 53
Name: Олекъ
если у Андрюхи не получится, то напомни мне, Вадик, в выходные. раз спасибка моя есть - значит качал (надо только на винтах найти).

_________________
прокъметол - это музыко, от которово есть прок (ы)


Top
 Profile  
 
 
PostPosted: 27 Jul 2012 
Хиппей (support team)
User avatar
Joined: 30 Jul 2007
Posts: 119447
Lоcаtion: Киев (Kyiv, UA)
Age: 47
Name: Andrey
Докочя.лосЪ. Через пару часов перелью, если инет снова мыши не перегрызут :esel:

_________________


Top
 Profile E-mail  
 
 
PostPosted: 27 Jul 2012 
Хиппей (support team)
User avatar
Joined: 30 Jul 2007
Posts: 119447
Lоcаtion: Киев (Kyiv, UA)
Age: 47
Name: Andrey
mirror: MultiUp l Narod

_________________


Top
 Profile E-mail  
 
Display posts from previous:  Sort by  
Post new topic Reply to topic  [ 16 posts ] 

All times are UTC + 3 hours


Who is online

Users browsing this forum: No registered users and 2 guests


You cannot post new topics in this forum
You cannot reply to topics in this forum
You cannot edit your posts in this forum
You cannot delete your posts in this forum
You cannot post attachments in this forum

Search for:
Яндекс.Метрика
Powered by phpBB © 2000, 2002, 2005, 2007 phpBB Group