\m/ 80's metal \m/

Информационно-аналитический форум "80 см пыли" (In Search We Trust) "У нас никто никуда не спешит"
Me For You - http://me-4u.com
It is currently 26 Oct 2020

All times are UTC + 3 hours

Spoiler
Chat - temporary registration for foreign users (please leave your application here)







Post new topic Reply to topic  [ 8 posts ] 
Author Message
 
PostPosted: 08 Nov 2010 
ыыыы
User avatar
Joined: 17 May 2009
Posts: 952
Lоcаtion: Пушкино, МО
Age: 42
Name: Дмитрий
Image


Жанр: Heavy Metal
Происхождение исполнителя: Швеция
Год издания: 1984
Год издания данного носителя: 1993
Страна-производитель носителя: Япония
Аудио кодек: FLAC
Тип рипа: image+.cue
Битрейт аудио: lossless
Продолжительность: 39:12
Рип: Собственный
Лейбл: EMI SVENSKA AB/EMI
Каталоговый номер: TOCP-8081
Матрица: TOCP-8081 1A1 TO (TOSHIBA)

Треклист:
1. Star Fighter 04:40
2. Echoes From the Past 04:20
3. United World 05:01
4. No Losers 05:55
5. Fire Breaks the Dawn 04:31
6. Dark Lady Forest 04:00
7. Crucified 05:18
8. Star of the Masquerade

"Куй"
REM GENRE "Hard Rock"
REM DATE 1984
REM DISCID 65093008
REM COMMENT "ExactAudioCopy v0.99pb5"
PERFORMER "Proud"
TITLE "Fire Breaks The Dawn [TOCP-8081]"
FILE "Proud - Fire Breaks The Dawn [TOCP-8081].flac" WAVE
TRACK 01 AUDIO
TITLE "Star Fighter"
PERFORMER "Proud"
INDEX 01 00:00:00
TRACK 02 AUDIO
TITLE "Echoes From The Past"
PERFORMER "Proud"
INDEX 01 04:40:05
TRACK 03 AUDIO
TITLE "United World"
PERFORMER "Proud"
INDEX 01 08:59:67
TRACK 04 AUDIO
TITLE "No Losers"
PERFORMER "Proud"
INDEX 01 14:00:55
TRACK 05 AUDIO
TITLE "Fire Breaks The Dawn"
PERFORMER "Proud"
INDEX 01 19:55:70
TRACK 06 AUDIO
TITLE "Dark Lady Forest"
PERFORMER "Proud"
INDEX 01 24:26:40
TRACK 07 AUDIO
TITLE "Crucified"
PERFORMER "Proud"
INDEX 01 28:26:22
TRACK 08 AUDIO
TITLE "Star Of The Masquerade"
PERFORMER "Proud"
INDEX 01 33:44:25


"Лог"
Exact Audio Copy V0.99 prebeta 5 from 4. May 2009

Отчёт EAC об извлечении, выполненном 2. ноября 2010, 12:20

Proud / Fire Breaks The Dawn [TOCP-8081]

Дисковод: Optiarc DVD RW AD-7200A Adapter: 1 ID: 0

Режим чтения : Достоверность
Использование точного потока : Да
Отключение кэша аудио : Да
Использование указателей C2 : Нет

Коррекция смещения при чтении : 48
Способность читать области Lead-in и Lead-out : Нет
Заполнение пропущенных сэмплов тишиной : Да
Удаление блоков с тишиной в начале и конце : Нет
При вычислениях CRC использовались нулевые сэмплы : Да
Интерфейс : Встроенный Win32-интерфейс для Win NT/2000

Выходной формат : Пользовательский кодировщик
Выбранный битрейт : 128 kBit/s
Качество : Высокий
Добавление ID3-тэга : Нет
Утилита сжатия : C:\Program Files\Exact Audio Copy\Flac\flac.exe
Дополнительные параметры : -8 -V -T "artist=%a" -T "title=%t" -T "album=%g" -T "date=%y" -T "tracknumber=%n" -T "genre=%m" -T "comment=EAC


TOC извлечённого CD

Трек | Старт | Длительность | Начальный сектор | Конечный сектор
---------------------------------------------------------------------
1 | 0:00.00 | 4:40.05 | 0 | 21004
2 | 4:40.05 | 4:19.62 | 21005 | 40491
3 | 8:59.67 | 5:00.63 | 40492 | 63054
4 | 14:00.55 | 5:55.15 | 63055 | 89694
5 | 19:55.70 | 4:30.45 | 89695 | 109989
6 | 24:26.40 | 3:59.57 | 109990 | 127971
7 | 28:26.22 | 5:18.03 | 127972 | 151824
8 | 33:44.25 | 5:27.70 | 151825 | 176419


Характеристики диапазона извлечения и сообщения об ошибках

Выбранный диапазон

Имя файла Y:\Музыка\Proud\1984 Fire Breaks The Dawn\Proud - Fire Breaks The Dawn [TOCP-8081].wav

Копирование прервано

Конец отчёта

------------------------------------------------------------

Exact Audio Copy V0.99 prebeta 5 from 4. May 2009

Отчёт EAC об извлечении, выполненном 2. ноября 2010, 12:42

Proud / Fire Breaks The Dawn [TOCP-8081]

Дисковод: Optiarc DVD RW AD-7200A Adapter: 1 ID: 0

Режим чтения : Достоверность
Использование точного потока : Да
Отключение кэша аудио : Да
Использование указателей C2 : Нет

Коррекция смещения при чтении : 48
Способность читать области Lead-in и Lead-out : Нет
Заполнение пропущенных сэмплов тишиной : Да
Удаление блоков с тишиной в начале и конце : Нет
При вычислениях CRC использовались нулевые сэмплы : Да
Интерфейс : Встроенный Win32-интерфейс для Win NT/2000

Выходной формат : Пользовательский кодировщик
Выбранный битрейт : 128 kBit/s
Качество : Высокий
Добавление ID3-тэга : Нет
Утилита сжатия : C:\Program Files\Exact Audio Copy\Flac\flac.exe
Дополнительные параметры : -8 -V -T "artist=%a" -T "title=%t" -T "album=%g" -T "date=%y" -T "tracknumber=%n" -T "genre=%m" -T "comment=EAC


TOC извлечённого CD

Трек | Старт | Длительность | Начальный сектор | Конечный сектор
---------------------------------------------------------------------
1 | 0:00.00 | 4:40.05 | 0 | 21004
2 | 4:40.05 | 4:19.62 | 21005 | 40491
3 | 8:59.67 | 5:00.63 | 40492 | 63054
4 | 14:00.55 | 5:55.15 | 63055 | 89694
5 | 19:55.70 | 4:30.45 | 89695 | 109989
6 | 24:26.40 | 3:59.57 | 109990 | 127971
7 | 28:26.22 | 5:18.03 | 127972 | 151824
8 | 33:44.25 | 5:27.70 | 151825 | 176419


Характеристики диапазона извлечения и сообщения об ошибках

Выбранный диапазон

Имя файла Y:\Музыка\Proud\1984 Fire Breaks The Dawn\Proud - Fire Breaks The Dawn [TOCP-8081].wav

Пиковый уровень 100.0 %
Качество диапазона 100.0 %
CRC теста 9E285C73
CRC копии 9E285C73
Копирование... OK

Ошибок не произошло


AccurateRip: сводка

Трек 1 нет в базе данных
Трек 2 нет в базе данных
Трек 3 нет в базе данных
Трек 4 нет в базе данных
Трек 5 нет в базе данных
Трек 6 нет в базе данных
Трек 7 нет в базе данных
Трек 8 нет в базе данных

Ни одного трека нет в базе AccurateRip

Конец отчёта


Состав:
Anders Magnell: Vocals
Peter Horvath: Guitar
Magnus Olson: Guitar
Bobby Horvarth: Bass
Anders Holmqvist: Drums

TOCP-8081

_________________
Витасу до Даймонда как Алсу до Руссоса | При переразмещении - спрашивать разрешение!!


Last edited by iezuit on 09 Nov 2010, edited 1 time in total.

Top
 Profile  
 
 
PostPosted: 08 Nov 2010 
А может смените мне статус?..
Joined: 03 Jul 2009
Posts: 905
Lоcаtion: Serbia
Name: Laki
Great, thanks. I didn't have the Japanese edition :thanx:


Top
 Profile E-mail  
 
 
PostPosted: 08 Nov 2010 
Old Time Rock`n`Roll
User avatar
Joined: 23 Jun 2008
Posts: 3578
Lоcаtion: г.Ульяновск
Age: 42
Name: Константин
Спасибо, Proud-84 в японском варианте - это по-настоящему круто! :true:


Top
 Profile  
 
 
PostPosted: 20 Nov 2010 
А может смените мне статус?..
User avatar
Joined: 24 Dec 2008
Posts: 661
Age: 46
Name: Дмитрий
:thanx:


Top
 Profile  
 
 
PostPosted: 20 Nov 2010 
Зарегился вот...
Joined: 07 Nov 2010
Posts: 4
Lоcаtion: Санкт-Петербург
Name: Макс
А мне как-то совсем не понравилось. Похоже, это надо было услышать в 84 году. Сейчас - бесполезно. Хотя и в 84-м было полно групп на три головы выше.


Top
 Profile E-mail  
 
 
PostPosted: 24 Nov 2010 
Хиппей (support team)
User avatar
Joined: 30 Jul 2007
Posts: 119421
Lоcаtion: Киев (Kyiv, UA)
Age: 47
Name: Andrey
:thanx:

_________________


Top
 Profile E-mail  
 
 
PostPosted: 07 Jan 2011 
Труъ
Joined: 16 Dec 2009
Posts: 172
Lоcаtion: perm
Name: Andrew
Черт....не успел....файл удален с сервиса


Top
 Profile E-mail  
 
 
PostPosted: 07 Jan 2011 
Труъ
Joined: 16 Dec 2009
Posts: 172
Lоcаtion: perm
Name: Andrew
Сорри,на рутрекере забрал......


Top
 Profile E-mail  
 
Display posts from previous:  Sort by  
Post new topic Reply to topic  [ 8 posts ] 

All times are UTC + 3 hours


Who is online

Users browsing this forum: No registered users and 1 guest


You cannot post new topics in this forum
You cannot reply to topics in this forum
You cannot edit your posts in this forum
You cannot delete your posts in this forum
You cannot post attachments in this forum

Search for:
Яндекс.Метрика
Powered by phpBB © 2000, 2002, 2005, 2007 phpBB Group