\m/ 80's metal \m/

Информационно-аналитический форум "80 см пыли" (In Search We Trust) "У нас никто никуда не спешит"
Me For You - http://me-4u.com
It is currently 29 Oct 2020

All times are UTC + 3 hours

Spoiler
Chat - temporary registration for foreign users (please leave your application here)







Post new topic Reply to topic  [ 37 posts ]  Go to page Previous  1, 2
Author Message
 
PostPosted: 05 Dec 2008 
Хиппей (support team)
User avatar
Joined: 30 Jul 2007
Posts: 119445
Lоcаtion: Киев (Kyiv, UA)
Age: 47
Name: Andrey
Толь, дак именно, что здесь устава то и нету.
Народ в основном качает чтобы слушать, а не записывать затем на болванки. Тем более, как я понял, расхождение это мало на что влияет.
Но на будущее просто от себя хотелось всем пожелать, чтобы указывали в постах источник релиза (откуда сам альбом - скачан с тырнета *указать релизёра*, рипнут с фирменного диска, рипнут с копии копии и пр.), такая инфа всем нам будет полезной :pardon:

А вообще, давай еще раз поговорим о лосях. Явно у каждого найдется что сказать за и против. И посоветовать как правильно всё оформлять. Ну и вывести общий шаблон.


Top
 Profile E-mail  
 
 
PostPosted: 06 Dec 2008 
Mechanix
User avatar
Joined: 05 Sep 2007
Posts: 486
Lоcаtion: Краснодар
Age: 47
Name: Лёха
Privateer меня всё устраивает, спасибо! =)

З.Ы. Но делать надо правильно! =)
З.Ы.Ы. Приезжай на консультацию! =)))


Top
 Profile  
 
 
PostPosted: 06 Dec 2008 
Прокъмитолист
User avatar
Joined: 12 Aug 2007
Posts: 6776
Lоcаtion: Санктъ-Петербуркъ
Age: 53
Name: Олекъ
alegri
Лёша, што у тебя с глазом? :shok:

_________________
прокъметол - это музыко, от которово есть прок (ы)


Top
 Profile  
 
 
PostPosted: 06 Dec 2008 
Хиппей (support team)
User avatar
Joined: 30 Jul 2007
Posts: 119445
Lоcаtion: Киев (Kyiv, UA)
Age: 47
Name: Andrey
spiralarch
Дак это ж пепельницо :pardon:


Top
 Profile E-mail  
 
 
PostPosted: 06 Dec 2008 
Mechanix
User avatar
Joined: 05 Sep 2007
Posts: 486
Lоcаtion: Краснодар
Age: 47
Name: Лёха
Quote:
Лёша, што у тебя с глазом?
... ерунда, бандиццкая пуля! :)


Top
 Profile  
 
 
PostPosted: 06 Dec 2008 
Анатолий
User avatar
Joined: 18 Oct 2008
Posts: 3925
Lоcаtion: Армавир
Age: 43
Name: Анатолий
Новый стандарт лежит здесь:

http://ifolder.ru/9411776 1
http://ifolder.ru/9413162 2
http://ifolder.ru/9414882 3


Top
 Profile E-mail  
 
 
PostPosted: 06 Dec 2008 
Хиппей (support team)
User avatar
Joined: 30 Jul 2007
Posts: 119445
Lоcаtion: Киев (Kyiv, UA)
Age: 47
Name: Andrey
Спасибо, качнём и этот, истинно правильный рип :ura:


Top
 Profile E-mail  
 
 
PostPosted: 06 Dec 2008 
.
User avatar
Joined: 25 Aug 2007
Posts: 568
Lоcаtion: Москва
Age: 108
Name: Kostolom
2 Privateer: спасибо!


Top
 Profile  
 
 
PostPosted: 07 Dec 2008 
Metal Collector
User avatar
Joined: 16 Nov 2008
Posts: 1352
Lоcаtion: Химки
Age: 37
Name: Андрей
Огромное спасибо за TRUE рип ;)


Top
 Profile E-mail  
 
 
PostPosted: 30 Sep 2010 
5cm
User avatar
Joined: 01 Mar 2009
Posts: 61
Name: Сергей
Перезалейте правильный рип пожалуйста !


Top
 Profile  
 
 
PostPosted: 24 Feb 2011 
Работнечег
User avatar
Joined: 28 Aug 2007
Posts: 6363
Lоcаtion: г. Москва
Age: 31
Name: Дима
Сергей, ещё нужно перезаливать?


Top
 Profile E-mail  
 
 
PostPosted: 24 Feb 2011 
Хиппей (support team)
User avatar
Joined: 30 Jul 2007
Posts: 119445
Lоcаtion: Киев (Kyiv, UA)
Age: 47
Name: Andrey
Дим, перелей, если мона. Я, кажись, его тож не успел скачать :oops:

_________________


Top
 Profile E-mail  
 
 
PostPosted: 05 Mar 2011 
Работнечег
User avatar
Joined: 28 Aug 2007
Posts: 6363
Lоcаtion: г. Москва
Age: 31
Name: Дима
Image

Band: Pariah
Album: Unity
Year: 1998
Label: Aartee Music Productions
Genre: Heavy Metal
Coutry: UK
Format: Flac + Log + Cue + Covers
Size: 300 Mb

Line-Up:
Vocals: Alan Hunter
Guitars: Russ Tippins
Guitars: Steve Ramsey
Bass: Graeme English
Drums: Ian McCormack


Tracklist:
1. Unity 04:00
2. Reactionary 06:05
3. Walking Wounded 06:31
4. No Exit 03:58
5. Snakes & Ladders 00:49
6. One of Us 03:57
7. Saboteurs 04:00
8. Mutual Street 03:45
9. The Jonah 05:49
10. Learning to Crawl 02:11
Total playing time 41:06

LOG
Exact Audio Copy V0.99 prebeta 5 from 4. May 2009

EAC extraction logfile from 15. February 2011, 20:26

Pariah / Unity

Used drive : PIONEER DVD-RW DVR-116D Adapter: 0 ID: 0

Read mode : Secure
Utilize accurate stream : Yes
Defeat audio cache : Yes
Make use of C2 pointers : No

Read offset correction : 96
Overread into Lead-In and Lead-Out : No
Fill up missing offset samples with silence : Yes
Delete leading and trailing silent blocks : No
Null samples used in CRC calculations : Yes
Used interface : Native Win32 interface for Win NT & 2000

Used output format : User Defined Encoder
Selected bitrate : 32 kBit/s
Quality : High
Add ID3 tag : No
Command line compressor : C:\Program Files\Exact Audio Copy\Flac\flac.exe
Additional command line options : -6 -V %s


TOC of the extracted CD

Track | Start | Length | Start sector | End sector
---------------------------------------------------------
1 | 0:00.00 | 4:00.48 | 0 | 18047
2 | 4:00.48 | 6:05.03 | 18048 | 45425
3 | 10:05.51 | 6:31.23 | 45426 | 74773
4 | 16:36.74 | 3:58.25 | 74774 | 92648
5 | 20:35.24 | 0:49.09 | 92649 | 96332
6 | 21:24.33 | 3:57.36 | 96333 | 114143
7 | 25:21.69 | 3:59.60 | 114144 | 132128
8 | 29:21.54 | 3:44.31 | 132129 | 148959
9 | 33:06.10 | 5:48.65 | 148960 | 175124
10 | 38:55.00 | 2:11.13 | 175125 | 184962


Range status and errors

Selected range

Filename D:\Музыка\Lossless\Pariah - Unity (1998)\Pariah - Unity.wav

Peak level 99.4 %
Range quality 100.0 %
Copy CRC CBE65290
Copy OK

No errors occurred


AccurateRip summary

Track 1 accurately ripped (confidence 2) [C8C0BB0D]
Track 2 accurately ripped (confidence 2) [4C2D7613]
Track 3 accurately ripped (confidence 2) [46F8874E]
Track 4 accurately ripped (confidence 2) [09C6170B]
Track 5 accurately ripped (confidence 2) [586436B6]
Track 6 accurately ripped (confidence 2) [5B15F93B]
Track 7 accurately ripped (confidence 2) [63150CA2]
Track 8 accurately ripped (confidence 2) [5B65E4B5]
Track 9 accurately ripped (confidence 2) [7AA7E8AC]
Track 10 accurately ripped (confidence 2) [98DAA89F]

All tracks accurately ripped

End of status report

CUE
REM GENRE "Heavy Metal"
REM DATE 1997
REM DISCID 9409A20A
REM COMMENT "ExactAudioCopy v0.99pb5"
PERFORMER "Pariah"
TITLE "Unity"
FILE "Pariah - Unity.flac" WAVE
TRACK 01 AUDIO
TITLE "Unity"
PERFORMER "Pariah"
INDEX 01 00:00:00
TRACK 02 AUDIO
TITLE "Reactionary"
PERFORMER "Pariah"
INDEX 01 04:00:48
TRACK 03 AUDIO
TITLE "Walking Wounded"
PERFORMER "Pariah"
INDEX 00 10:01:71
INDEX 01 10:05:51
TRACK 04 AUDIO
TITLE "No Exit"
PERFORMER "Pariah"
INDEX 00 16:33:18
INDEX 01 16:36:74
TRACK 05 AUDIO
TITLE "Snakes & Ladders"
PERFORMER "Pariah"
INDEX 00 20:32:05
INDEX 01 20:35:24
TRACK 06 AUDIO
TITLE "One Of Us"
PERFORMER "Pariah"
INDEX 01 21:24:33
TRACK 07 AUDIO
TITLE "Saboteurs"
PERFORMER "Pariah"
INDEX 00 25:18:13
INDEX 01 25:21:69
TRACK 08 AUDIO
TITLE "Mutual Street"
PERFORMER "Pariah"
INDEX 00 29:17:74
INDEX 01 29:21:54
TRACK 09 AUDIO
TITLE "The Jonah"
PERFORMER "Pariah"
INDEX 00 33:02:30
INDEX 01 33:06:10
TRACK 10 AUDIO
TITLE "Learning To Crawl"
PERFORMER "Pariah"
INDEX 00 38:51:32
INDEX 01 38:55:00


Narod.Ru l MultiUp

Рип не Анатолия Privateer, а мой собственный с диска Олега spiralarch, надеюсь он не против :true:


Top
 Profile E-mail  
 
 
PostPosted: 05 Mar 2011 
Прокъмитолист
User avatar
Joined: 12 Aug 2007
Posts: 6776
Lоcаtion: Санктъ-Петербуркъ
Age: 53
Name: Олекъ
:true:

_________________
прокъметол - это музыко, от которово есть прок (ы)


Top
 Profile  
 
 
PostPosted: 05 Mar 2011 
Хиппей (support team)
User avatar
Joined: 30 Jul 2007
Posts: 119445
Lоcаtion: Киев (Kyiv, UA)
Age: 47
Name: Andrey
О, спасибо большое! :thanx:

_________________


Top
 Profile E-mail  
 
 
PostPosted: 07 Mar 2011 
Персональный статус
Joined: 19 Jul 2010
Posts: 282
Lоcаtion: Москва
Name: Вадим
Спасибо, послушаю. Даже и не знал, что у них третий альбом выходил.


Top
 Profile E-mail  
 
 
PostPosted: 07 Mar 2011 
А может смените мне статус?..
User avatar
Joined: 24 Dec 2008
Posts: 661
Age: 46
Name: Дмитрий
:thanx:


Top
 Profile  
 
Display posts from previous:  Sort by  
Post new topic Reply to topic  [ 37 posts ]  Go to page Previous  1, 2

All times are UTC + 3 hours


Who is online

Users browsing this forum: No registered users and 2 guests


You cannot post new topics in this forum
You cannot reply to topics in this forum
You cannot edit your posts in this forum
You cannot delete your posts in this forum
You cannot post attachments in this forum

Search for:
Яндекс.Метрика
Powered by phpBB © 2000, 2002, 2005, 2007 phpBB Group