\m/ 80's metal \m/

Информационно-аналитический форум "80 см пыли" (In Search We Trust) "У нас никто никуда не спешит"
Me For You - http://me-4u.com
It is currently 26 Oct 2020

All times are UTC + 3 hours

Spoiler
Chat - temporary registration for foreign users (please leave your application here)







Post new topic Reply to topic  [ 5 posts ] 
Author Message
 
PostPosted: 29 Jun 2010 
Прокъмитолист
User avatar
Joined: 12 Aug 2007
Posts: 6776
Lоcаtion: Санктъ-Петербуркъ
Age: 53
Name: Олекъ
Pan Ram [1993] Time Is Gone
Stone Records (Stone 002)

Image

Genre: heavy/progressive metal
Country: Germany
Contents: ape/cue/log/covers
Size: 372 MB

Tracklist:
01. Target You
02. The Wolf Is Out
03. Love Hereafter
04. Black Rain
05. Time Is Gone
06. Passion And Crime
07. Bad Things
08. Dog Eat Dog
09. Too Soon, Too Late
10. Don't Give Up
11. ?! (Hear Me)

Playtime: 52:40

Lineup:
Jack Steen - vocals
Ricci Tessalla - guitars
Christopher La Hawk - keyboards
Holly Hollander - bass
Franky Matthes - drums

EAC log
Code:
Exact Audio Copy V0.99 prebeta 4 from 23. January 2008

EAC extraction logfile from 29. March 2008, 15:59

PAN RAM / Time Is Gone

Used drive  : TSSTcorpCD/DVDW SH-S182D   Adapter: 0  ID: 0

Read mode               : Secure
Utilize accurate stream : Yes
Defeat audio cache      : Yes
Make use of C2 pointers : No

Read offset correction                      : 6
Overread into Lead-In and Lead-Out          : No
Fill up missing offset samples with silence : Yes
Delete leading and trailing silent blocks   : No
Null samples used in CRC calculations       : No
Used interface                              : Installed external ASPI interface

Used output format : Internal WAV Routines
Sample format      : 44.100 Hz; 16 Bit; Stereo


TOC of the extracted CD

     Track |   Start  |  Length  | Start sector | End sector
    ---------------------------------------------------------
        1  |  0:00.32 |  4:57.48 |        32    |    22354   
        2  |  4:58.05 |  4:38.17 |     22355    |    43221   
        3  |  9:36.22 |  5:13.45 |     43222    |    66741   
        4  | 14:49.67 |  5:56.43 |     66742    |    93484   
        5  | 20:46.35 |  3:10.42 |     93485    |   107776   
        6  | 23:57.02 |  8:09.73 |    107777    |   144524   
        7  | 32:07.00 |  5:05.05 |    144525    |   167404   
        8  | 37:12.05 |  3:17.10 |    167405    |   182189   
        9  | 40:29.15 |  4:32.32 |    182190    |   202621   
       10  | 45:01.47 |  5:11.55 |    202622    |   226001   
       11  | 50:13.27 |  2:27.05 |    226002    |   237031   


Range status and errors

Selected range

     Filename D:\Cd\To Share\PAN RAM - 1993 - Time Is Gone [Eac-Ape] by Sapo Malo\PAN RAM - Time Is Gone.wav

     Peak level 100.0 %
     Range quality 100.0 %
     Copy CRC 856723EE
     Copy OK

No errors occurred


AccurateRip summary

Track  1  not present in database
Track  2  not present in database
Track  3  not present in database
Track  4  not present in database
Track  5  not present in database
Track  6  not present in database
Track  7  not present in database
Track  8  not present in database
Track  9  not present in database
Track 10  not present in database
Track 11  not present in database

None of the tracks are present in the AccurateRip database

End of status report

И еще одна заявочка от Павла hawkhunter. Огромное спасибо за рип нашему итальянскому другу SapoMalo :drink:

_________________
прокъметол - это музыко, от которово есть прок (ы)


Top
 Profile  
 
 
PostPosted: 29 Jun 2010 
Я набрал 1000 сообщений!
User avatar
Joined: 25 Dec 2008
Posts: 1545
Age: 45
Name: Павел
Кайф!Спасибо,Олег!Ну и передай благодарность нашим иностранным друзьям! :true:


Top
 Profile  
 
 
PostPosted: 30 Jun 2010 
спирт 100%
User avatar
Joined: 22 Sep 2008
Posts: 4594
Age: 49
Name: Саня
Олег & SapoMalo, Спасибо!!! :thanx: :true:


Top
 Profile  
 
 
PostPosted: 02 Jul 2010 
Работнечег
User avatar
Joined: 28 Aug 2007
Posts: 6363
Lоcаtion: г. Москва
Age: 31
Name: Дима
Спасибо! Теперь бы самый первый найти в лосслесс!


Top
 Profile E-mail  
 
 
PostPosted: 27 Nov 2011 
Power Metal Maniac
User avatar
Joined: 09 Aug 2008
Posts: 7238
Lоcаtion: Москва
Age: 42
Name: Егор
:thanx:

_________________
Long Live Metal!


Top
 Profile  
 
Display posts from previous:  Sort by  
Post new topic Reply to topic  [ 5 posts ] 

All times are UTC + 3 hours


Who is online

Users browsing this forum: No registered users and 1 guest


You cannot post new topics in this forum
You cannot reply to topics in this forum
You cannot edit your posts in this forum
You cannot delete your posts in this forum
You cannot post attachments in this forum

Search for:
Яндекс.Метрика
Powered by phpBB © 2000, 2002, 2005, 2007 phpBB Group