\m/ 80's metal \m/
http://80metal.com/

Paradox 1989 / Heresy - Japan
http://80metal.com/viewtopic.php?f=189&t=8145
Page 1 of 1

Author:  iezuit [ 18 May 2010 ]
Post subject:  Paradox 1989 / Heresy - Japan

Image


Жанр: Thrash/Speed Metal
Происхождение исполнителя: Германия
Год издания: 1989
Год издания данного носителя: 1990
Страна-производитель носителя: Япония
Аудио кодек: FLAC
Тип рипа: image+.cue
Битрейт аудио: lossless
Продолжительность: 42:10
Рип: Собственный
Лейбл: ROADRUNNER/APOLLON
Каталоговый номер: APCY-8011
Матрица: APCY-8011-A1K 11 V (JVC)

Треклист:
1. Heresy 06:56
2. Search For Perfection 04:54
3. Killtime 04:30
4. Crusaders Revenge 04:27
5. The Burning 05:26
6. Massacre Of The Cathars 04:19
7. Serenity 04:53
8. 700 Years On 05:14
9. Castle In The Wind 01:31

"Куй"
REM GENRE "Heavy Metal"
REM DATE 1989
REM DISCID 7509E209
REM COMMENT "ExactAudioCopy v0.99pb5"
PERFORMER "Paradox"
TITLE "Heresy [APCY-8011]"
FILE "Paradox - Heresy [APCY-8011].flac" WAVE
TRACK 01 AUDIO
TITLE "Heresy"
PERFORMER "Paradox"
INDEX 00 00:00:00
INDEX 01 00:00:37
TRACK 02 AUDIO
TITLE "Search For Perfection"
PERFORMER "Paradox"
INDEX 01 06:56:12
TRACK 03 AUDIO
TITLE "Killtime"
PERFORMER "Paradox"
INDEX 01 11:50:30
TRACK 04 AUDIO
TITLE "Crusaders Revenge"
PERFORMER "Paradox"
INDEX 00 16:19:17
INDEX 01 16:20:55
TRACK 05 AUDIO
TITLE "The Burning"
PERFORMER "Paradox"
INDEX 00 20:45:62
INDEX 01 20:47:25
TRACK 06 AUDIO
TITLE "Massacre Of The Cathars"
PERFORMER "Paradox"
INDEX 00 26:12:37
INDEX 01 26:13:37
TRACK 07 AUDIO
TITLE "Serenity"
PERFORMER "Paradox"
INDEX 00 30:32:27
INDEX 01 30:32:37
TRACK 08 AUDIO
TITLE "700 Years On"
PERFORMER "Paradox"
INDEX 00 35:24:00
INDEX 01 35:25:32
TRACK 09 AUDIO
TITLE "Castle In The Wind"
PERFORMER "Paradox"
INDEX 00 40:39:09
INDEX 01 40:39:10


"Лог"
Exact Audio Copy V0.99 prebeta 5 from 4. May 2009

EAC extraction logfile from 18. May 2010, 10:15

Paradox / Heresy [APCY-8011]

Used drive : Optiarc DVD RW AD-7200A Adapter: 0 ID: 0

Read mode : Secure
Utilize accurate stream : Yes
Defeat audio cache : Yes
Make use of C2 pointers : No

Read offset correction : 48
Overread into Lead-In and Lead-Out : No
Fill up missing offset samples with silence : Yes
Delete leading and trailing silent blocks : No
Null samples used in CRC calculations : Yes
Used interface : Native Win32 interface for Win NT & 2000

Used output format : User Defined Encoder
Selected bitrate : 128 kBit/s
Quality : High
Add ID3 tag : No
Command line compressor : C:\Program Files\Exact Audio Copy\Flac\flac.exe
Additional command line options : -8 -V -T "artist=%a" -T "title=%t" -T "album=%g" -T "date=%y" -T "tracknumber=%n" -T "genre=%m" -T "comment=EAC 0.9beta4 / FLAC 1.1.0 q6" %s


TOC of the extracted CD

Track | Start | Length | Start sector | End sector
---------------------------------------------------------
1 | 0:00.37 | 6:55.50 | 37 | 31211
2 | 6:56.12 | 4:54.18 | 31212 | 53279
3 | 11:50.30 | 4:30.25 | 53280 | 73554
4 | 16:20.55 | 4:26.45 | 73555 | 93549
5 | 20:47.25 | 5:26.12 | 93550 | 118011
6 | 26:13.37 | 4:19.00 | 118012 | 137436
7 | 30:32.37 | 4:52.70 | 137437 | 159406
8 | 35:25.32 | 5:13.53 | 159407 | 182934
9 | 40:39.10 | 1:31.35 | 182935 | 189794


Range status and errors

Selected range

Filename Y:\Музыка\Paradox\1989 Heresy\Paradox - Heresy [APCY-8011].wav

Peak level 100.0 %
Range quality 100.0 %
Copy CRC 75EEA830
Copy OK

No errors occurred

End of status report


Состав:
Charly Steinhauer: Vocals/Guitar
Markus Spyth: Guitar
Matthias Schmidt: Bass
Axel Blaha: Drums

Народ

Author:  Rager [ 18 May 2010 ]
Post subject:  Re: Paradox 1989 / Heresy - Japan

Спасибо, обновлю.

Author:  iezuit [ 18 May 2010 ]
Post subject:  Re: Paradox 1989 / Heresy - Japan

Rager
на здоровье!

Author:  fantafan [ 19 May 2010 ]
Post subject:  Re: Paradox 1989 / Heresy - Japan

Большое спасибо!

Author:  Terrion [ 20 May 2010 ]
Post subject:  Re: Paradox 1989 / Heresy - Japan

Уух! Спасибо, Дим :)

Author:  mutabor [ 22 May 2010 ]
Post subject:  Re: Paradox 1989 / Heresy - Japan

Спасибо большое! :thanx:

Author:  Everhard [ 31 Oct 2014 ]
Post subject:  Re: Paradox 1989 / Heresy - Japan

Mirror: Narod
Просто замечательный альбом :meloman: :true:

Page 1 of 1 All times are UTC + 3 hours
Powered by phpBB © 2000, 2002, 2005, 2007 phpBB Group
http://www.phpbb.com/