\m/ 80's metal \m/

Информационно-аналитический форум "80 см пыли" (In Search We Trust) "У нас никто никуда не спешит"
Me For You - http://me-4u.com
It is currently 29 Oct 2020

All times are UTC + 3 hours

Spoiler
Chat - temporary registration for foreign users (please leave your application here)







Post new topic Reply to topic  [ 18 posts ] 
Author Message
 
PostPosted: 14 May 2010 
хард н хэвщик (support team)
User avatar
Joined: 02 Jun 2008
Posts: 16881
Lоcаtion: Н.Новгород
Age: 33
Name: Артем
Image

Image

Precious Metal - Precious Metal 1990

1. Mr. Big Stuff (3:00)
2. Trouble (4:09)
3. Two Hearts (3:05)
4. Thrilling Life (3:30)
5. Forever Tonight (4:31)
6. Reckless (4:22)
7. Eazier Than You Think (4:18)
8. Nasty Habits (3:50)
9. Downhill Dreamer (5:11)
10. In The Mood (4:46)
11. Howl At The Moon (3:36)
12. Chasing Rainbows (4:22)

за альбом спасибо моему земляку! :true:
формат: APE потрековый, ковриков нет

http://www.heavyharmonies.com/cgi-bin/g ... ious+Metal

http://www.multiupload.com/LM72OQVLH1


Top
 Profile  
 
 
PostPosted: 14 May 2010 
Персональный статус
Joined: 02 Apr 2010
Posts: 223
Name: Андрей
Спасибо Артём! Очень даже неплохая команда... :thanx:
P.S. Однако ж хороший у тебя земляк!:)


Top
 Profile  
 
 
PostPosted: 14 May 2010 
Old Time Rock`n`Roll
User avatar
Joined: 23 Jun 2008
Posts: 3578
Lоcаtion: г.Ульяновск
Age: 42
Name: Константин
Спасибо, были женщины в американских селеньях! :true:


Top
 Profile  
 
 
PostPosted: 22 Jun 2012 
Хиппей (support team)
User avatar
Joined: 30 Jul 2007
Posts: 119447
Lоcаtion: Киев (Kyiv, UA)
Age: 47
Name: Andrey
Народ, люди, человеки. Перезалейте, плиз, альбом, кто скачивал :thanx:

А то зачем-то его везде поудялили :vic:

_________________


Top
 Profile E-mail  
 
 
PostPosted: 22 Jun 2012 
Old Time Rock`n`Roll
User avatar
Joined: 23 Jun 2008
Posts: 3578
Lоcаtion: г.Ульяновск
Age: 42
Name: Константин
narod-FLAC

Другой рип скачанный откуда-то, непотрековый и с логом-куем.

Log
Exact Audio Copy V0.99 prebeta 4 from 23. January 2008

EAC extraction logfile from 30. May 2010, 11:13

Precious Metal / Precious Metal

Used drive : HL-DT-STDVD-RAM GH22NP20 Adapter: 0 ID: 0

Read mode : Secure
Utilize accurate stream : Yes
Defeat audio cache : Yes
Make use of C2 pointers : No

Read offset correction : 102
Overread into Lead-In and Lead-Out : No
Fill up missing offset samples with silence : Yes
Delete leading and trailing silent blocks : No
Null samples used in CRC calculations : Yes
Used interface : Installed external ASPI interface

Used output format : Internal WAV Routines
Sample format : 44.100 Hz; 16 Bit; Stereo


TOC of the extracted CD

Track | Start | Length | Start sector | End sector
---------------------------------------------------------
1 | 0:00.00 | 3:04.59 | 0 | 13858
2 | 3:04.59 | 4:13.29 | 13859 | 32862
3 | 7:18.13 | 3:09.07 | 32863 | 47044
4 | 10:27.20 | 3:33.29 | 47045 | 63048
5 | 14:00.49 | 4:38.46 | 63049 | 83944
6 | 18:39.20 | 4:25.14 | 83945 | 103833
7 | 23:04.34 | 4:22.72 | 103834 | 123555
8 | 27:27.31 | 3:53.59 | 123556 | 141089
9 | 31:21.15 | 5:15.26 | 141090 | 164740
10 | 36:36.41 | 4:50.32 | 164741 | 186522
11 | 41:26.73 | 3:40.26 | 186523 | 203048
12 | 45:07.24 | 4:06.69 | 203049 | 221567


Range status and errors

Selected range

Filename D:\Мои документы\папа\EAC\Precious Metal - Precious Metal.wav

Suspicious position 0:26:27 - 0:26:28
Suspicious position 0:26:30
Suspicious position 0:26:32
Suspicious position 0:47:16

Peak level 96.0 %
Range quality 99.7 %
Copy CRC 6FCE24C1
Copy finished

There were errors

End of status report

cue
REM GENRE "Rock & Roll"
REM DATE 1990
REM DISCID B30B8A0C
REM COMMENT "ExactAudioCopy v0.99pb4"
PERFORMER "Precious Metal"
TITLE "Precious Metal"
FILE "Precious Metal - Precious Metal.flac" WAVE
TRACK 01 AUDIO
TITLE "Mr. Big Stuff"
PERFORMER "Precious Metal"
FLAGS DCP
INDEX 01 00:00:00
TRACK 02 AUDIO
TITLE "Trouble"
PERFORMER "Precious Metal"
FLAGS DCP
INDEX 00 03:02:58
INDEX 01 03:04:59
TRACK 03 AUDIO
TITLE "Two Hearts"
PERFORMER "Precious Metal"
FLAGS DCP
INDEX 00 07:16:12
INDEX 01 07:18:13
TRACK 04 AUDIO
TITLE "Thrilling Life"
PERFORMER "Precious Metal"
FLAGS DCP
INDEX 00 10:25:18
INDEX 01 10:27:20
TRACK 05 AUDIO
TITLE "Forever Tonight"
PERFORMER "Precious Metal"
FLAGS DCP
INDEX 00 13:58:48
INDEX 01 14:00:49
TRACK 06 AUDIO
TITLE "Reckless"
PERFORMER "Precious Metal"
FLAGS DCP
INDEX 00 18:37:19
INDEX 01 18:39:20
TRACK 07 AUDIO
TITLE "Eazier Than You Think"
PERFORMER "Precious Metal"
FLAGS DCP
INDEX 00 23:02:60
INDEX 01 23:04:34
TRACK 08 AUDIO
TITLE "Nasty Habits"
PERFORMER "Precious Metal"
FLAGS DCP
INDEX 00 27:25:30
INDEX 01 27:27:31
TRACK 09 AUDIO
TITLE "Downhill Dreamer"
PERFORMER "Precious Metal"
FLAGS DCP
INDEX 00 31:19:17
INDEX 01 31:21:15
TRACK 10 AUDIO
TITLE "In The Mood"
PERFORMER "Precious Metal"
FLAGS DCP
INDEX 00 36:34:40
INDEX 01 36:36:41
TRACK 11 AUDIO
TITLE "Howl At The Moon"
PERFORMER "Precious Metal"
FLAGS DCP
INDEX 00 41:25:06
INDEX 01 41:26:73
TRACK 12 AUDIO
TITLE "Chasing Rainbow"
PERFORMER "Precious Metal"
FLAGS DCP
INDEX 00 45:05:61
INDEX 01 45:07:24

spectrum
Image


Top
 Profile  
 
 
PostPosted: 22 Jun 2012 
Труъ
User avatar
Joined: 01 Nov 2009
Posts: 116
Lоcаtion: Нефтекумск
Age: 43
Name: Олег
Вот спасибо за альбом. А то вчера поискал, нигде нету и здесь ссылка мертвая.

_________________
Heavy Metal Is The Law!


Top
 Profile E-mail  
 
 
PostPosted: 23 Jun 2012 
Хиппей (support team)
User avatar
Joined: 30 Jul 2007
Posts: 119447
Lоcаtion: Киев (Kyiv, UA)
Age: 47
Name: Andrey
Костя, спасибке :dance:

_________________


Top
 Profile E-mail  
 
 
PostPosted: 24 Jun 2012 
Хиппей (support team)
User avatar
Joined: 30 Jul 2007
Posts: 119447
Lоcаtion: Киев (Kyiv, UA)
Age: 47
Name: Andrey
Да уж. Упустил я то время этот альбом. Сейчас же слушаю и тихо прусь :meloman:
Красота какя неземная и классически хард-роковая с девушками :dance:
Не факт, что они здесь всё играли сами и пели, но альбом вышел очень уж мощным, задорным и качественным.
Доколупаться совершенно не к чему :fingal:

10/10

mirror: Narod l Narod

_________________


Top
 Profile E-mail  
 
 
PostPosted: 24 Jun 2012 
Old Time Rock`n`Roll
User avatar
Joined: 23 Jun 2008
Posts: 3578
Lоcаtion: г.Ульяновск
Age: 42
Name: Константин
Интересный вопрос.
Сыграли и спели более-менее все сами, за исключением одного баса и акустической гитары. Бэк-вокал и клавишные со стороны - обычное дело.

Additional Players:
Nancy Wilson - Acoustic Guitar & Backing Vocals # 2
Peter Robinson - Keyboards
Charles Olins - Keyboards
Tom Petersson - Bass # 10
Jimmie Wood - Harmonica # 10
Cherry Currie - Backing Vocals
Debbie Dye - Backing Vocals
Brie Howard - Backing Vocals
Jana Allen - Backing Vocals
Angel Rodgers - Backing Vocals
Breta Troyer - Backing Vocals
Beth Hooker - Backing Vocals
Joanne Harris - Backing Vocals
Jill Carr - Backing Vocals

С сочинительством конечно похуже:
свои треки - 7,8,11
сторонние авторы - 1,3,12
совместно - 2,4,5,6,9,10

Но симпатичным девушкам мы конечно это простим. Драммерша просто сеструха-близнец Сандры :true:

Image

В числе соавторов Нэнси Уилсон, Пол Сабу, Брюс Спрингстин, странно что альбом выпускал не мажорный лейбл с соответствующей поддержкой.


Top
 Profile  
 
 
PostPosted: 25 Jun 2012 
Хиппей (support team)
User avatar
Joined: 30 Jul 2007
Posts: 119447
Lоcаtion: Киев (Kyiv, UA)
Age: 47
Name: Andrey
oldrocker wrote:
Драммерша просто сеструха-близнец Сандры :true:

Ога :dance: Но остальные подгуляли маленько... :yyy:

_________________


Top
 Profile E-mail  
 
 
PostPosted: 25 Jun 2012 
Персональный статус
Joined: 15 Jul 2008
Posts: 340
Age: 12
Name: Алексей
Фэны Сандры, драммерша - вторая слева на обложке.


Top
 Profile  
 
 
PostPosted: 25 Jun 2012 
Old Time Rock`n`Roll
User avatar
Joined: 23 Jun 2008
Posts: 3578
Lоcаtion: г.Ульяновск
Age: 42
Name: Константин
Scatterbrain wrote:
Ога :dance: Но остальные подгуляли маленько... :yyy:


Да ладно, нормальные девушки :nea:
Девушки из рабочих кварталов L.A., чьи лица еще не тронули скальпели пластических хирургов. :true:


Top
 Profile  
 
 
PostPosted: 25 Jun 2012 
Хиппей (support team)
User avatar
Joined: 30 Jul 2007
Posts: 119447
Lоcаtion: Киев (Kyiv, UA)
Age: 47
Name: Andrey
oldrocker wrote:
чьи лица еще не тронули скальпели пластических хирургов

Вот поэтому и... :yyy:
А остального :two: не видно :pardon:

_________________


Top
 Profile E-mail  
 
 
PostPosted: 25 Jun 2012 
Труъ
User avatar
Joined: 01 Nov 2009
Posts: 116
Lоcаtion: Нефтекумск
Age: 43
Name: Олег
А я вообще большой любитель всех этих хэви-металлических девиц из 80-х. Все нравятся.

_________________
Heavy Metal Is The Law!


Top
 Profile E-mail  
 
 
PostPosted: 26 Jun 2012 
ТрэшЭрос
User avatar
Joined: 18 Jul 2011
Posts: 2307
Lоcаtion: Гулькевичи
Age: 45
Name: Александр
Norzaargh wrote:
любитель всех этих хэви-металлических девиц

Precious metal

_________________
Thrash no trash!!!


Top
 Profile E-mail  
 
 
PostPosted: 27 Jun 2012 
ТрэшЭрос
User avatar
Joined: 18 Jul 2011
Posts: 2307
Lоcаtion: Гулькевичи
Age: 45
Name: Александр
oldrocker, :thanx:

_________________
Thrash no trash!!!


Top
 Profile E-mail  
 
 
PostPosted: 14 Jul 2012 
Труъ
Joined: 01 Jan 2010
Posts: 118
Lоcаtion: MetaLWarrioR
Name: Сергей
Классный альбом, спасибо большое!


Top
 Profile E-mail  
 
 
PostPosted: 23 Jul 2012 
Труъ
User avatar
Joined: 05 Oct 2008
Posts: 194
Lоcаtion: Saint Petersburg
Age: 47
Name: Jesse
Пасиб! Я тоже упустил его и теперь с радостью восполню про*б)))


Top
 Profile  
 
Display posts from previous:  Sort by  
Post new topic Reply to topic  [ 18 posts ] 

All times are UTC + 3 hours


Who is online

Users browsing this forum: No registered users and 1 guest


You cannot post new topics in this forum
You cannot reply to topics in this forum
You cannot edit your posts in this forum
You cannot delete your posts in this forum
You cannot post attachments in this forum

Search for:
Яндекс.Метрика
cron
Powered by phpBB © 2000, 2002, 2005, 2007 phpBB Group