\m/ 80's metal \m/

Информационно-аналитический форум "80 см пыли" (In Search We Trust) "У нас никто никуда не спешит"
Me For You - http://me-4u.com
It is currently 19 Feb 2019

All times are UTC + 3 hours

Spoiler
Chat - temporary registration for foreign users (please leave your application here)







Post new topic Reply to topic  [ 22 posts ]  Go to page 1, 2  Next
Author Message
 
PostPosted: 11 Mar 2010 
А может смените мне статус?..
Joined: 03 Jul 2009
Posts: 853
Lоcаtion: Serbia
Name: Laki
Panic - [Bra] - Rotten Church (1987)

Genre: Speed Thrash
Location: Brazil
Fornat: ape+cue+log
Size: 452 Mb


Image

1.Seeds of Hate
2.Satan Shall Return
3.God's Death
4.Empire of Voilence
5.Rotten Church
6.Mutilator of Bodies
7.MegaForce
8.F.O.D.

Panic - Seeds of Hate Demo 1987

09.Seeds of Hate
10.Satan Shall Retun
11.God´s Death

Panic Demo-lition Tape 1991

12.Twilight in Samarra
13.Deadly F....
14.No York,No York
15.Noise Kills
16.Time to Die
17.H.N.F.I.




Here's the link

http://www.megaupload.com/?d=7Y2W50T6

http://www.megaupload.com/?d=ZER56CX4 scans

EAC log
EAC extraction logfile from 10. March 2010, 12:44

Panic / Rotten Church (reissue)

Used drive : PIONEER DVD-RW DVR-115D Adapter: 0 ID: 0

Read mode : Secure
Utilize accurate stream : Yes
Defeat audio cache : Yes
Make use of C2 pointers : No

Read offset correction : 48
Overread into Lead-In and Lead-Out : No
Fill up missing offset samples with silence : Yes
Delete leading and trailing silent blocks : No
Null samples used in CRC calculations : Yes
Used interface : Installed external ASPI interface

Used output format : Internal WAV Routines
Sample format : 44.100 Hz; 16 Bit; Stereo


TOC of the extracted CD

Track | Start | Length | Start sector | End sector
---------------------------------------------------------
1 | 0:00.00 | 4:49.16 | 0 | 21690
2 | 4:49.16 | 3:31.04 | 21691 | 37519
3 | 8:20.20 | 3:17.24 | 37520 | 52318
4 | 11:37.44 | 4:59.44 | 52319 | 74787
5 | 16:37.13 | 6:29.22 | 74788 | 103984
6 | 23:06.35 | 4:45.60 | 103985 | 125419
7 | 27:52.20 | 9:42.72 | 125420 | 169141
8 | 37:35.17 | 0:30.51 | 169142 | 171442
9 | 38:05.68 | 4:46.14 | 171443 | 192906
10 | 42:52.07 | 3:28.62 | 192907 | 208568
11 | 46:20.69 | 3:13.07 | 208569 | 223050
12 | 49:34.01 | 4:11.41 | 223051 | 241916
13 | 53:45.42 | 4:49.37 | 241917 | 263628
14 | 58:35.04 | 4:34.46 | 263629 | 284224
15 | 63:09.50 | 4:04.11 | 284225 | 302535
16 | 67:13.61 | 5:45.74 | 302536 | 328484
17 | 72:59.60 | 0:22.43 | 328485 | 330177


Range status and errors

Selected range

Filename D:\Panic\Panic - Rotten Church (reissue).wav

Peak level 99.9 %
Range quality 100.0 %
Copy CRC ED1B4213
Copy OK

No errors occurred


AccurateRip summary

Track 1 accurately ripped (confidence 1) [EE517D24]
Track 2 accurately ripped (confidence 1) [398C4A21]
Track 3 accurately ripped (confidence 1) [3CC57A04]
Track 4 accurately ripped (confidence 1) [85234ACF]
Track 5 accurately ripped (confidence 1) [0C711BE9]
Track 6 accurately ripped (confidence 1) [5399187C]
Track 7 accurately ripped (confidence 1) [A5C57A92]
Track 8 accurately ripped (confidence 1) [94363ADA]
Track 9 accurately ripped (confidence 1) [106E3549]
Track 10 accurately ripped (confidence 1) [A46193C6]
Track 11 accurately ripped (confidence 1) [7D1B075C]
Track 12 accurately ripped (confidence 1) [09590B13]
Track 13 accurately ripped (confidence 1) [D9B92A8D]
Track 14 accurately ripped (confidence 1) [255506B5]
Track 15 accurately ripped (confidence 1) [9E551893]
Track 16 accurately ripped (confidence 1) [AAF7857F]
Track 17 accurately ripped (confidence 1) [448DD602]

All tracks accurately ripped

End of status report


cue
REM DISCID 1D113211
REM COMMENT "ExactAudioCopy v0.99pb4"
PERFORMER "Panic"
TITLE "Rotten Church (reissue)"
FILE "Panic - Rotten Church (reissue).wav" WAVE
TRACK 01 AUDIO
TITLE "Seeds Of Hate"
PERFORMER "Panic"
INDEX 01 00:00:00
TRACK 02 AUDIO
TITLE "Satan Shall Return"
PERFORMER "Panic"
INDEX 00 04:46:74
INDEX 01 04:49:16
TRACK 03 AUDIO
TITLE "God's Death"
PERFORMER "Panic"
INDEX 00 08:18:10
INDEX 01 08:20:20
TRACK 04 AUDIO
TITLE "Empire Of Violence"
PERFORMER "Panic"
INDEX 00 11:35:45
INDEX 01 11:37:44
TRACK 05 AUDIO
TITLE "Rotten Church"
PERFORMER "Panic"
INDEX 00 16:35:19
INDEX 01 16:37:13
TRACK 06 AUDIO
TITLE "Mutilator of Bodies"
PERFORMER "Panic"
INDEX 00 23:04:31
INDEX 01 23:06:35
TRACK 07 AUDIO
TITLE "Megaforce"
PERFORMER "Panic"
INDEX 00 27:50:24
INDEX 01 27:52:20
TRACK 08 AUDIO
TITLE "F.O.D."
PERFORMER "Panic"
INDEX 00 37:32:71
INDEX 01 37:35:17
TRACK 09 AUDIO
TITLE "Seeds of Hate (demo 87)"
PERFORMER "Panic"
INDEX 00 38:03:66
INDEX 01 38:05:68
TRACK 10 AUDIO
TITLE "Satan Shall Return (demo 87)"
PERFORMER "Panic"
INDEX 00 42:50:11
INDEX 01 42:52:07
TRACK 11 AUDIO
TITLE "God's Death (demo 87)"
PERFORMER "Panic"
INDEX 00 46:18:63
INDEX 01 46:20:69
TRACK 12 AUDIO
TITLE "Twilight In Samarra (demo 91)"
PERFORMER "Panic"
INDEX 00 49:32:12
INDEX 01 49:34:01
TRACK 13 AUDIO
TITLE "Deadly Fucked (demo 91)"
PERFORMER "Panic"
INDEX 00 53:45:01
INDEX 01 53:45:42
TRACK 14 AUDIO
TITLE "No York, No York (demo 91)"
PERFORMER "Panic"
INDEX 00 58:33:03
INDEX 01 58:35:04
TRACK 15 AUDIO
TITLE "Noise Kills (demo 91)"
PERFORMER "Panic"
INDEX 00 63:07:44
INDEX 01 63:09:50
TRACK 16 AUDIO
TITLE "Time To Die (demo 91)"
PERFORMER "Panic"
INDEX 00 67:11:57
INDEX 01 67:13:61
TRACK 17 AUDIO
TITLE "H.N.F.I. (demo 91)"
PERFORMER "Panic"
INDEX 00 72:57:52
INDEX 01 72:59:60


Last edited by glory11 on 14 Mar 2010, edited 5 times in total.

Top
 Profile E-mail  
 
 
PostPosted: 11 Mar 2010 
Хиппей (support team)
User avatar
Joined: 30 Jul 2007
Posts: 110327
Lоcаtion: Киев (Kyiv, UA)
Age: 45
Name: Andrey
Thank you Laki! :thanx:
Rip yours?

_________________


Top
 Profile E-mail  
 
 
PostPosted: 11 Mar 2010 
А может смените мне статус?..
Joined: 03 Jul 2009
Posts: 853
Lоcаtion: Serbia
Name: Laki
Scatterbrain wrote:
Thank you Laki! :thanx:
Rip yours?


Yes, it is


Top
 Profile E-mail  
 
 
PostPosted: 11 Mar 2010 
Хиппей (support team)
User avatar
Joined: 30 Jul 2007
Posts: 110327
Lоcаtion: Киев (Kyiv, UA)
Age: 45
Name: Andrey
Thanks again!
Under the rules, such releases we have placed in the section Lossless, showing the cue & log

_________________


Top
 Profile E-mail  
 
 
PostPosted: 11 Mar 2010 
А может смените мне статус?..
Joined: 03 Jul 2009
Posts: 853
Lоcаtion: Serbia
Name: Laki
I will do that today


Top
 Profile E-mail  
 
 
PostPosted: 11 Mar 2010 
Хиппей (support team)
User avatar
Joined: 30 Jul 2007
Posts: 110327
Lоcаtion: Киев (Kyiv, UA)
Age: 45
Name: Andrey
Ok :dance: Example, see here viewtopic.php?f=176&t=5057

_________________


Top
 Profile E-mail  
 
 
PostPosted: 11 Mar 2010 
А может смените мне статус?..
Joined: 03 Jul 2009
Posts: 853
Lоcаtion: Serbia
Name: Laki
Cheers, for help


Top
 Profile E-mail  
 
 
PostPosted: 11 Mar 2010 
Хиппей (support team)
User avatar
Joined: 30 Jul 2007
Posts: 110327
Lоcаtion: Киев (Kyiv, UA)
Age: 45
Name: Andrey
Perfect :true:

_________________


Top
 Profile E-mail  
 
 
PostPosted: 11 Mar 2010 
Thrasher
User avatar
Joined: 07 Oct 2007
Posts: 2760
Lоcаtion: Russia, Moscow
Age: 35
Name: Drunk & Evil
THANX!!! :true: :true: :true:

_________________
ВОДКА, БАБЫ И БЛЮЗ / 40° till death... :bodun:
One time we saw some hookers, but when we got closer, we realised it was Mötley Crüe. ©


Top
 Profile  
 
 
PostPosted: 11 Mar 2010 
труъ антисионист
User avatar
Joined: 01 Aug 2007
Posts: 4541
Lоcаtion: Откуда и большинство из нас
Age: 38
Name: Дядя Вова
Сенкью :ura:

_________________
Image
Image


Top
 Profile  
 
 
PostPosted: 11 Mar 2010 
дядя Миша
User avatar
Joined: 17 Oct 2008
Posts: 3094
Lоcаtion: USSR
Age: 56
Name: Khy
мучас грациес :true:


Top
 Profile  
 
 
PostPosted: 11 Mar 2010 
А может смените мне статус?..
User avatar
Joined: 24 Dec 2008
Posts: 628
Age: 45
Name: Дмитрий
Thanks. :thanx:


Top
 Profile  
 
 
PostPosted: 12 Mar 2010 
Доктор энтомологии
User avatar
Joined: 22 Jan 2009
Posts: 9608
Lоcаtion: Даугавпилс
Age: 43
Name: Алексей
Paldies :thanx:


Top
 Profile  
 
 
PostPosted: 14 Mar 2010 
дядя Миша
User avatar
Joined: 17 Oct 2008
Posts: 3094
Lоcаtion: USSR
Age: 56
Name: Khy
А где је поклопац?
без обложек не тру :fingal:


Top
 Profile  
 
 
PostPosted: 14 Mar 2010 
А может смените мне статус?..
Joined: 03 Jul 2009
Posts: 853
Lоcаtion: Serbia
Name: Laki
Scans added :true:


Top
 Profile E-mail  
 
 
PostPosted: 14 Mar 2010 
Хиппей (support team)
User avatar
Joined: 30 Jul 2007
Posts: 110327
Lоcаtion: Киев (Kyiv, UA)
Age: 45
Name: Andrey
Опа, спасибо, Лаки! :thanx:

_________________


Top
 Profile E-mail  
 
 
PostPosted: 14 Mar 2010 
дядя Миша
User avatar
Joined: 17 Oct 2008
Posts: 3094
Lоcаtion: USSR
Age: 56
Name: Khy
Во , теперь tru :true:


Top
 Profile  
 
 
PostPosted: 18 Mar 2010 
Труъ
User avatar
Joined: 15 Dec 2008
Posts: 131
Lоcаtion: Донбасс
Age: 46
Name: Евгений
Вот это да! Thank you! :true:


Top
 Profile  
 
 
PostPosted: 19 Mar 2010 
Прокъмитолист
User avatar
Joined: 12 Aug 2007
Posts: 6528
Lоcаtion: Санктъ-Петербуркъ
Age: 51
Name: Олекъ
спасибо! :true: :thanx:

_________________
прокъметол - это музыко, от которово есть прок (ы)


Top
 Profile  
 
 
PostPosted: 06 Feb 2012 
Генеральный thrasher
User avatar
Joined: 03 Oct 2008
Posts: 3599
Lоcаtion: Ханты-Мансийский АО
Age: 44
Name: Сергей
Что-то неведомо как я пропустил этот пост.Может кто-нибудь перезпльёт на Народ или фолдер?


Top
 Profile  
 
Display posts from previous:  Sort by  
Post new topic Reply to topic  [ 22 posts ]  Go to page 1, 2  Next

All times are UTC + 3 hours


Who is online

Users browsing this forum: No registered users and 1 guest


You cannot post new topics in this forum
You cannot reply to topics in this forum
You cannot edit your posts in this forum
You cannot delete your posts in this forum
You cannot post attachments in this forum

Search for:
Яндекс.Метрика
Powered by phpBB © 2000, 2002, 2005, 2007 phpBB Group