\m/ 80's metal \m/

Информационно-аналитический форум "80 см пыли" (In Search We Trust) "У нас никто никуда не спешит"
Me For You - http://me-4u.com
It is currently 29 Oct 2020

All times are UTC + 3 hours

Spoiler
Chat - temporary registration for foreign users (please leave your application here)







Post new topic Reply to topic  [ 7 posts ] 
Author Message
 
PostPosted: 22 Feb 2010 
спирт 100%
User avatar
Joined: 22 Sep 2008
Posts: 4594
Age: 49
Name: Саня
PHOENIX(FRANCE) - THE FORGOTTEN CREATURES -1997 /HEAVY METAL/ Любое качество........ :thanx:

Image

VOCALS: ARNAUD LAVOINE
GUITAR: GUILLAUME ADAM
BASS / KEYBORDS: ALEXANDRE ADAM
DRUMS: MATTHIAS AUBRY
SOPRANE: CAROLINE DALLE

TRACKS
1) PRELUDE
2) COMING OF CTHULU
3) A STRANGER IN PRAG - GOLEM
4) PHOENIX
5) ALONE IN THE DARK


Top
 Profile  
 
 
PostPosted: 10 Mar 2010 
хард н хэвщик (support team)
User avatar
Joined: 02 Jun 2008
Posts: 16881
Lоcаtion: Н.Новгород
Age: 33
Name: Артем
Quote:
Genre(s)
Symphonic Heavy/Black Metal
Сань, а точно надо ? :shok:


Top
 Profile  
 
 
PostPosted: 17 Apr 2010 
спирт 100%
User avatar
Joined: 22 Sep 2008
Posts: 4594
Age: 49
Name: Саня
McKagan wrote:
Symphonic Heavy/Black Metal

Артём,это наверное что то ужасное . Мне наверняка не понравится .
Но если найдётся,всё равно надо залить,наверняка кому нибудь понравится .


Top
 Profile  
 
 
PostPosted: 17 Aug 2013 
Rara avis
User avatar
Joined: 27 Jan 2009
Posts: 5713
Name: .
Уже есть в сети...


Top
 Profile E-mail  
 
 
PostPosted: 19 Aug 2013 
Хиппей (support team)
User avatar
Joined: 30 Jul 2007
Posts: 119447
Lоcаtion: Киев (Kyiv, UA)
Age: 47
Name: Andrey
:thanx:

Phoenix - 1997 - The Forgotten Creatures (EP) [flac]

ImageImage

mirror: F-Bit l Narod l eDisk

log
Exact Audio Copy V0.99 prebeta 5 from 4. May 2009

Отчёт EAC об извлечении, выполненном 31. мая 2013, 20:15

Phoenix / The Forgotten Creatures [EP]

Дисковод: TSSTcorpCDDVDW SH-S223C Adapter: 5 ID: 0

Режим чтения : Достоверность
Использование точного потока : Да
Отключение кэша аудио : Да
Использование указателей C2 : Нет

Коррекция смещения при чтении : 697
Способность читать области Lead-in и Lead-out : Нет
Заполнение пропущенных сэмплов тишиной : Да
Удаление блоков с тишиной в начале и конце : Нет
При вычислениях CRC использовались нулевые сэмплы : Да
Интерфейс : Встроенный Win32-интерфейс для Win NT/2000

Выходной формат : Пользовательский кодировщик
Выбранный битрейт : 1024 kBit/s
Качество : Высокий
Добавление ID3-тэга : Нет
Утилита сжатия : C:\Program Files (x86)\FLAC\flac.exe
Дополнительные параметры : -T "DATE=%y" -T "GENRE=%m" -8 -V %s


TOC извлечённого CD

Трек | Старт | Длительность | Начальный сектор | Конечный сектор
---------------------------------------------------------------------
1 | 0:00.00 | 1:31.27 | 0 | 6851
2 | 1:31.27 | 4:44.30 | 6852 | 28181
3 | 6:15.57 | 5:31.08 | 28182 | 53014
4 | 11:46.65 | 2:59.13 | 53015 | 66452
5 | 14:46.03 | 4:41.70 | 66453 | 87597


Характеристики диапазона извлечения и сообщения об ошибках

Выбранный диапазон

Имя файла F:\Bufer\FLAC\Phoenix - The Forgotten Creatures [EP].wav

Пиковый уровень 97.0 %
Качество диапазона 100.0 %
CRC теста D3AE110A
CRC копии D3AE110A
Копирование... OK

Ошибок не произошло


AccurateRip: сводка

Трек 1 нет в базе данных
Трек 2 нет в базе данных
Трек 3 нет в базе данных
Трек 4 нет в базе данных
Трек 5 нет в базе данных

Ни одного трека нет в базе AccurateRip

Конец отчёта

cue
REM GENRE "Heavy Metal"
REM DATE 1997
REM DISCID 46048F05
REM COMMENT "ExactAudioCopy v0.99pb5"
PERFORMER "Phoenix"
TITLE "The Forgotten Creatures [EP]"
FILE "Phoenix - The Forgotten Creatures [EP].flac" WAVE
TRACK 01 AUDIO
TITLE "Prelude, Opus 2 "
PERFORMER "Phoenix"
INDEX 01 00:00:00
TRACK 02 AUDIO
TITLE "The Coming of Cthulhu "
PERFORMER "Phoenix"
INDEX 01 01:31:27
TRACK 03 AUDIO
TITLE "A Stranger in Prague, the Golem "
PERFORMER "Phoenix"
INDEX 01 06:15:57
TRACK 04 AUDIO
TITLE "Phoenix "
PERFORMER "Phoenix"
INDEX 01 11:46:65
TRACK 05 AUDIO
TITLE "Alone in the Dark "
PERFORMER "Phoenix"
INDEX 01 14:46:03

_________________


Top
 Profile E-mail  
 
 
PostPosted: 19 Aug 2013 
Хиппей (support team)
User avatar
Joined: 30 Jul 2007
Posts: 119447
Lоcаtion: Киев (Kyiv, UA)
Age: 47
Name: Andrey
Послушал =)
Фигня какая-то. Обычный хэви с сифоническими прогонами иногда и бабским типа йоперными подпевками тоже иногда.
Вокалиста расстрелять.
Хотя... возможно это у него так французский звучит? :vic:
Где здесь блэк?
Ну-у-у, явно в лирике :pardon:

_________________


Top
 Profile E-mail  
 
 
PostPosted: 19 Aug 2013 
спирт 100%
User avatar
Joined: 22 Sep 2008
Posts: 4594
Age: 49
Name: Саня
:thanx: Спасибо!


Top
 Profile  
 
Display posts from previous:  Sort by  
Post new topic Reply to topic  [ 7 posts ] 

All times are UTC + 3 hours


Who is online

Users browsing this forum: No registered users and 1 guest


You cannot post new topics in this forum
You cannot reply to topics in this forum
You cannot edit your posts in this forum
You cannot delete your posts in this forum
You cannot post attachments in this forum

Search for:
Яндекс.Метрика
cron
Powered by phpBB © 2000, 2002, 2005, 2007 phpBB Group