\m/ 80's metal \m/

Информационно-аналитический форум "80 см пыли" (In Search We Trust) "У нас никто никуда не спешит"
Me For You - http://me-4u.com
It is currently 26 Oct 2020

All times are UTC + 3 hours

Spoiler
Chat - temporary registration for foreign users (please leave your application here)







Post new topic Reply to topic  [ 8 posts ] 
Author Message
 
PostPosted: 12 Jan 2010 
А может смените мне статус?..
User avatar
Joined: 17 Jan 2008
Posts: 901
Lоcаtion: Пенза
Age: 43
Name: Денис
Ищу лося этой группы.Данный коллектив,возник на руинах хорошо известных нью-йоркских трешеров Dead On.Стилистически Planet Hate несколько отдалились от Dead On,хотя музыка осталась на трешовой территории.

Planet Hate - Mother Are You Mad? [1994,Energy Records/Concrete]

Image

Tracklist

1. Monster 03:18
2. Mother Are You Mad? 03:48
3. Gone 05:13
4. Dead Is Dead 02:31
5. Sam I Am 03:39
6. So Much 04:39
7. See 03:06
8. Blue Sky 03:59
9. Core 03:58
10. Sight Unseen 03:19
11. Dental Atrocity 04:27
12. What's To Know 04:14
13. Pressure's On Greg 05:55

Для тех кто не слышал эту группу..Линк в мп3(vbr hq)

http://rapidshare.com/files/333031509/P ... ou_Mad.rar


Top
 Profile  
 
 
PostPosted: 08 Oct 2010 
А может смените мне статус?..
User avatar
Joined: 17 Jan 2008
Posts: 901
Lоcаtion: Пенза
Age: 43
Name: Денис
лосяру нашел..запрос ликвидировать надобно...


Top
 Profile  
 
 
PostPosted: 08 Oct 2010 
Прокъмитолист
User avatar
Joined: 12 Aug 2007
Posts: 6776
Lоcаtion: Санктъ-Петербуркъ
Age: 53
Name: Олекъ
запрос ликвидировать, а лосяру в бухту бы... :losik:

_________________
прокъметол - это музыко, от которово есть прок (ы)


Top
 Profile  
 
 
PostPosted: 08 Oct 2010 
А может смените мне статус?..
User avatar
Joined: 17 Jan 2008
Posts: 901
Lоcаtion: Пенза
Age: 43
Name: Денис
spiralarch wrote:
запрос ликвидировать, а лосяру в бухту бы... :losik:

зачем бухта..загляни на Хедбенгерс)))


Top
 Profile  
 
 
PostPosted: 08 Oct 2010 
Прокъмитолист
User avatar
Joined: 12 Aug 2007
Posts: 6776
Lоcаtion: Санктъ-Петербуркъ
Age: 53
Name: Олекъ
klod77 wrote:
зачем бухта..загляни на Хедбенгерс)))

точняк. он же у меня тоже скачан :dash: :crazy:

_________________
прокъметол - это музыко, от которово есть прок (ы)


Top
 Profile  
 
 
PostPosted: 08 Oct 2010 
Хиппей (support team)
User avatar
Joined: 30 Jul 2007
Posts: 119421
Lоcаtion: Киев (Kyiv, UA)
Age: 47
Name: Andrey
Запросы здесь не ликвидируются :pardon: Просто закрываются.

Ссылка на лося:
http://nnm.ru/blogs/imaevil/planet_hate ... re_you_mad
Благодарим Макса :dance: (чего-то у меня нет на ННМ окошка для ответа :shok: )

_________________


Top
 Profile E-mail  
 
 
PostPosted: 28 Nov 2011 
Хиппей (support team)
User avatar
Joined: 30 Jul 2007
Posts: 119421
Lоcаtion: Киев (Kyiv, UA)
Age: 47
Name: Andrey
Ща отзеркалю, а то непорядок... :fingal:

_________________


Top
 Profile E-mail  
 
 
PostPosted: 28 Nov 2011 
Хиппей (support team)
User avatar
Joined: 30 Jul 2007
Posts: 119421
Lоcаtion: Киев (Kyiv, UA)
Age: 47
Name: Andrey
Planet Hate - 1994 - Mother Are You Mad [flac]

Attachment:
front.jpg
front.jpg [ 146.71 KiB | Viewed 177 times ]


Genre: ...Metal...
Location: USA
Format: flac+cue+log
Size: 378 Mb


Line-up:
Michael Caronia - Guitars, Vocals
Rodman Delcastillo - Guitars
Dean Beaver - Bass
Mike "Dunk" Caputo - Drums

    1. Monster - 03:18
    2. Mother Are You Mad? - 03:48
    3. Gone - 05:13
    4. Dead Is Dead - 02:31
    5. Sam I Am - 03:39
    6. So Much - 04:39
    7. See - 03:06
    8. Blue Sky - 03:59
    9. Core - 03:58
    10. Sight Unseen - 03:19
    11. Dental Atrocity - 04:27
    12. What's To Know - 04:14
    13. Pressure's On Greg - 05:55

    TPT: 52:06

Альбом стырен с "Ваты" и был слеплен КуеТулзом в один кусок. Ибо так красивше. Сам куй подрихтован, понятное дело. Лог остался прежним.
Сканов - нет :esel:

И... если здесь кто-то обнаружит Thrash Metal, просьба... позвонить... в метро, например :shok:
Это такой себе в меру приальтернативленный мелодичный грув-метол, иногда с фанком, иногда со стонером, и иногда хрен пойми с чем еще. Но, как ни странно, не утомляет и не парит.
Но и восторгов не вызывает.

5/10

MultiUp l Narod

log
Exact Audio Copy V0.99 prebeta 5 from 4. May 2009

EAC extraction logfile from 24. March 2010, 0:04

Planet Hate / Mother Are You Mad

Used drive : HP DVD Writer 1070r Adapter: 1 ID: 0

Read mode : Secure
Utilize accurate stream : Yes
Defeat audio cache : Yes
Make use of C2 pointers : No

Read offset correction : 6
Overread into Lead-In and Lead-Out : No
Fill up missing offset samples with silence : Yes
Delete leading and trailing silent blocks : No
Null samples used in CRC calculations : Yes
Used interface : Native Win32 interface for Win NT & 2000
Gap handling : Appended to previous track

Used output format : Internal WAV Routines
Sample format : 44.100 Hz; 16 Bit; Stereo


TOC of the extracted CD

Track | Start | Length | Start sector | End sector
---------------------------------------------------------
1 | 0:00.00 | 3:18.34 | 0 | 14883
2 | 3:18.34 | 3:48.03 | 14884 | 31986
3 | 7:06.37 | 5:13.45 | 31987 | 55506
4 | 12:20.07 | 2:31.63 | 55507 | 66894
5 | 14:51.70 | 3:49.25 | 66895 | 84094
6 | 18:41.20 | 4:39.57 | 84095 | 105076
7 | 23:21.02 | 3:06.65 | 105077 | 119091
8 | 26:27.67 | 3:59.03 | 119092 | 137019
9 | 30:26.70 | 3:58.35 | 137020 | 154904
10 | 34:25.30 | 3:19.62 | 154905 | 169891
11 | 37:45.17 | 4:27.10 | 169892 | 189926
12 | 42:12.27 | 4:14.63 | 189927 | 209039
13 | 46:27.15 | 5:55.00 | 209040 | 235664


Track 1

Filename E:\-=EAC Files\Planet Hate - Mother Are You Mad - 01 - Monster.wav

Pre-gap length 0:00:02.00

Peak level 92.5 %
Track quality 100.0 %
Test CRC 691D8302
Copy CRC 691D8302
Track not present in AccurateRip database
Copy OK

Track 2

Filename E:\-=EAC Files\Planet Hate - Mother Are You Mad - 02 - Mother Are You Mad.wav

Peak level 90.4 %
Track quality 100.0 %
Test CRC 432371F2
Copy CRC 432371F2
Track not present in AccurateRip database
Copy OK

Track 3

Filename E:\-=EAC Files\Planet Hate - Mother Are You Mad - 03 - Gone.wav

Peak level 92.5 %
Track quality 100.0 %
Test CRC 6321ADB5
Copy CRC 6321ADB5
Track not present in AccurateRip database
Copy OK

Track 4

Filename E:\-=EAC Files\Planet Hate - Mother Are You Mad - 04 - Dead Is Dead.wav

Peak level 89.8 %
Track quality 100.0 %
Test CRC 7BBDFA93
Copy CRC 7BBDFA93
Track not present in AccurateRip database
Copy OK

Track 5

Filename E:\-=EAC Files\Planet Hate - Mother Are You Mad - 05 - Sam I Am.wav

Peak level 90.8 %
Track quality 100.0 %
Test CRC 28C609EE
Copy CRC 28C609EE
Track not present in AccurateRip database
Copy OK

Track 6

Filename E:\-=EAC Files\Planet Hate - Mother Are You Mad - 06 - So Much.wav

Peak level 93.1 %
Track quality 100.0 %
Test CRC F61E1072
Copy CRC F61E1072
Track not present in AccurateRip database
Copy OK

Track 7

Filename E:\-=EAC Files\Planet Hate - Mother Are You Mad - 07 - See.wav

Peak level 92.0 %
Track quality 100.0 %
Test CRC 023F15B2
Copy CRC 023F15B2
Track not present in AccurateRip database
Copy OK

Track 8

Filename E:\-=EAC Files\Planet Hate - Mother Are You Mad - 08 - Blue Sky.wav

Peak level 92.9 %
Track quality 100.0 %
Test CRC 174DE02B
Copy CRC 174DE02B
Track not present in AccurateRip database
Copy OK

Track 9

Filename E:\-=EAC Files\Planet Hate - Mother Are You Mad - 09 - Core.wav

Peak level 93.1 %
Track quality 100.0 %
Test CRC B247BA97
Copy CRC B247BA97
Track not present in AccurateRip database
Copy OK

Track 10

Filename E:\-=EAC Files\Planet Hate - Mother Are You Mad - 10 - Sight Unseen.wav

Peak level 91.2 %
Track quality 100.0 %
Test CRC F99E5E7E
Copy CRC F99E5E7E
Track not present in AccurateRip database
Copy OK

Track 11

Filename E:\-=EAC Files\Planet Hate - Mother Are You Mad - 11 - Dental Atrocity.wav

Peak level 91.8 %
Track quality 100.0 %
Test CRC F1A74D32
Copy CRC F1A74D32
Track not present in AccurateRip database
Copy OK

Track 12

Filename E:\-=EAC Files\Planet Hate - Mother Are You Mad - 12 - What's To Know.wav

Peak level 90.7 %
Track quality 100.0 %
Test CRC 4A5E71BB
Copy CRC 4A5E71BB
Track not present in AccurateRip database
Copy OK

Track 13

Filename E:\-=EAC Files\Planet Hate - Mother Are You Mad - 13 - The Pressure's On Greg.wav

Peak level 92.3 %
Track quality 99.9 %
Test CRC E98D00B5
Copy CRC E98D00B5
Track not present in AccurateRip database
Copy OK


None of the tracks are present in the AccurateRip database

No errors occurred

End of status report


cue
REM ACCURATERIPID 00180462-00f16cfa-b40c460d
REM GENRE "Thrash Metal"
REM DATE 1994
REM DISCID B40C460D
REM COMMENT "ExactAudioCopy v0.99pb5"
CATALOG 0000000000000
PERFORMER "Planet Hate"
TITLE "Mother Are You Mad"
FILE "Planet Hate - Mother Are You Mad.flac" WAVE
TRACK 01 AUDIO
TITLE "Monster"
PERFORMER "Planet Hate"
INDEX 01 00:00:00
TRACK 02 AUDIO
TITLE "Mother Are You Mad"
PERFORMER "Planet Hate"
INDEX 01 03:18:34
TRACK 03 AUDIO
TITLE "Gone"
PERFORMER "Planet Hate"
INDEX 01 07:06:37
TRACK 04 AUDIO
TITLE "Dead Is Dead"
PERFORMER "Planet Hate"
INDEX 01 12:20:07
TRACK 05 AUDIO
TITLE "Sam I Am"
PERFORMER "Planet Hate"
INDEX 01 14:51:70
TRACK 06 AUDIO
TITLE "So Much"
PERFORMER "Planet Hate"
INDEX 01 18:41:20
TRACK 07 AUDIO
TITLE "See"
PERFORMER "Planet Hate"
INDEX 01 23:21:02
TRACK 08 AUDIO
TITLE "Blue Sky"
PERFORMER "Planet Hate"
INDEX 01 26:27:67
TRACK 09 AUDIO
TITLE "Core"
PERFORMER "Planet Hate"
INDEX 01 30:26:70
TRACK 10 AUDIO
TITLE "Sight Unseen"
PERFORMER "Planet Hate"
INDEX 01 34:25:30
TRACK 11 AUDIO
TITLE "Dental Atrocity"
PERFORMER "Planet Hate"
INDEX 01 37:45:17
TRACK 12 AUDIO
TITLE "What's To Know"
PERFORMER "Planet Hate"
INDEX 01 42:12:27
TRACK 13 AUDIO
TITLE "The Pressure's On Greg"
PERFORMER "Planet Hate"
INDEX 01 46:27:15


spectrum
Attachment:
spectrum.jpg
spectrum.jpg [ 340.41 KiB | Viewed 185 times ]

_________________


Top
 Profile E-mail  
 
Display posts from previous:  Sort by  
Post new topic Reply to topic  [ 8 posts ] 

All times are UTC + 3 hours


Who is online

Users browsing this forum: No registered users and 2 guests


You cannot post new topics in this forum
You cannot reply to topics in this forum
You cannot edit your posts in this forum
You cannot delete your posts in this forum
You cannot post attachments in this forum

Search for:
Яндекс.Метрика
cron
Powered by phpBB © 2000, 2002, 2005, 2007 phpBB Group