\m/ 80's metal \m/

Информационно-аналитический форум "80 см пыли" (In Search We Trust) "У нас никто никуда не спешит"
Me For You - http://me-4u.com
It is currently 26 Oct 2020

All times are UTC + 3 hours

Spoiler
Chat - temporary registration for foreign users (please leave your application here)







Post new topic Reply to topic  [ 34 posts ]  Go to page 1, 2  Next
Author Message
 
PostPosted: 27 Dec 2009 
мелосмертхстер
User avatar
Joined: 11 Jul 2008
Posts: 1058
Lоcаtion: (Әлмәт/Самара)
Age: 44
Name: Rus†Ⓐm
Image

Год: 2000
Стиль: Melodic Hard Rock
Страна: UK
Формат: Flac + Log + Cue
Размер: 435 mb

Image

Dennis Stratton guitars, backing vocals
Tino Troy guitars, backing vocals, keyboards
Tony O'Hora lead and backing vocals
Bruce Bisland drums, percussion, backing vocals
Chris Troy bass, backing vocals, keyboards

Трэклист:

1. Nowhere to Hide
2. Cruel Winter
3. The Clocktower
4. Can't Stop the Fire
5. Future of the World
6. Whenever I'm Lost
7. You'll Never Know
8. River of Hope
9. Naked (bonus track)
10. S.O.S.

лог
Exact Audio Copy V0.99 prebeta 1 from 25. May 2007

EAC extraction logfile from 27. December 2009, 1:54

Praying Mantis / Nowhere To Hide

Used drive : TSSTcorpCDDVDW SH-S203B Adapter: 1 ID: 0

Read mode : Secure
Utilize accurate stream : Yes
Defeat audio cache : Yes
Make use of C2 pointers : No

Read offset correction : 6
Overread into Lead-In and Lead-Out : No
Fill up missing offset samples with silence : Yes
Delete leading and trailing silent blocks : No
Used interface : Native Win32 interface for Win NT & 2000

Used output format : Internal WAV Routines
Sample format : 44.100 Hz; 16 Bit; Stereo


TOC of the extracted CD

Track | Start | Length | Start sector | End sector
---------------------------------------------------------
1 | 0:00.00 | 5:31.30 | 0 | 24854
2 | 5:31.30 | 5:53.26 | 24855 | 51355
3 | 11:24.56 | 5:11.25 | 51356 | 74705
4 | 16:36.06 | 4:54.38 | 74706 | 96793
5 | 21:30.44 | 6:18.57 | 96794 | 125200
6 | 27:49.26 | 6:07.22 | 125201 | 152747
7 | 33:56.48 | 5:39.22 | 152748 | 178194
8 | 39:35.70 | 6:10.49 | 178195 | 205993
9 | 45:46.44 | 7:53.14 | 205994 | 241482
10 | 53:39.58 | 6:46.13 | 241483 | 271945


Range status and errors

Selected range

Filename C:\Documents and Settings\Администратор\Рабочий стол\Praying Mantis - Nowhere To Hide.wav

Peak level 100.0 %
Range quality 100.0 %
Copy CRC 5C7CA423
Copy OK


AccurateRip summary

Track 1 not present in database
Track 2 not present in database
Track 3 not present in database
Track 4 not present in database
Track 5 not present in database
Track 6 not present in database
Track 7 not present in database
Track 8 not present in database
Track 9 not present in database
Track 10 not present in database

No errors occurred

End of status report


part 1
part 2
part 3
part 4
part 5

_________________
Everytime I Die

Image


Top
 Profile E-mail  
 
 
PostPosted: 27 Dec 2009 
Прокъмитолист
User avatar
Joined: 12 Aug 2007
Posts: 6776
Lоcаtion: Санктъ-Петербуркъ
Age: 53
Name: Олекъ
Рустам, вроде все путем. у меня только один совет: если уж юзаешь 99-ю версию ЕАКа, то поставь последнюю - пребета 5 :umnik:

_________________
прокъметол - это музыко, от которово есть прок (ы)


Top
 Profile  
 
 
PostPosted: 08 Jan 2010 
Пионэръ
Joined: 06 May 2009
Posts: 14
Name: lll22
Спасибо!!!


Top
 Profile E-mail  
 
 
PostPosted: 18 Jul 2011 
ТрэшЭрос
User avatar
Joined: 18 Jul 2011
Posts: 2307
Lоcаtion: Гулькевичи
Age: 45
Name: Александр
Praying Mantis - Nowhere To Hide.part3.rar

При восстановлении из архива :dash:
Произошла ошибка при восстановлении, пожалуйста попробуйте позднее.


Help me кто-нибудь!

_________________
Thrash no trash!!!


Top
 Profile E-mail  
 
 
PostPosted: 18 Jul 2011 
Хиппей (support team)
User avatar
Joined: 30 Jul 2007
Posts: 119421
Lоcаtion: Киев (Kyiv, UA)
Age: 47
Name: Andrey
Моментег, сообщу в прокуратуру Фолдыря....

_________________


Top
 Profile E-mail  
 
 
PostPosted: 19 Jul 2011 
Хиппей (support team)
User avatar
Joined: 30 Jul 2007
Posts: 119421
Lоcаtion: Киев (Kyiv, UA)
Age: 47
Name: Andrey
Угу, 3-я часть зависла :fingal:
Завтра отпишу в саппорт :oops:

_________________


Top
 Profile E-mail  
 
 
PostPosted: 19 Jul 2011 
Хиппей (support team)
User avatar
Joined: 30 Jul 2007
Posts: 119421
Lоcаtion: Киев (Kyiv, UA)
Age: 47
Name: Andrey
На всяк случай ссылка на торрентированного лося :arrow: http://rutracker.org/forum/viewtopic.php?t=1412887 :losik:

_________________


Top
 Profile E-mail  
 
 
PostPosted: 19 Jul 2011 
Хиппей (support team)
User avatar
Joined: 30 Jul 2007
Posts: 119421
Lоcаtion: Киев (Kyiv, UA)
Age: 47
Name: Andrey
Praying Mantis - 2000 - Nowhere to Hide [ape]

F-Bit l Narod l Yadi


log
Exact Audio Copy V0.99 prebeta 3 from 28. July 2007

Отчёт EAC об извлечении, выполненном 29. августа 2008, 11:10

Nowhere to Hide / Praying Mantis

Дисковод: HL-DT-STDVD-RAM GSA-H54N Adapter: 3 ID: 0

Режим чтения : Достоверность
Использование точного потока : Да
Отключение кэша аудио : Да
Использование указателей C2 : Нет

Коррекция смещения при чтении : 102
Способность читать области Lead-in и Lead-out : Нет
Заполнение пропущенных сэмплов тишиной : Да
Удаление блоков с тишиной в начале и конце : Нет
При вычислениях CRC использовались нулевые сэмплы : Нет
Интерфейс : Встроенный Win32-интерфейс для Win NT/2000

Выходной формат : Monkey's Audio Lossless Encoder v3.99 DLL
Формат сэмплов : High Lossless Compression


TOC извлечённого CD

Трек | Старт | Длительность | Начальный сектор | Конечный сектор
---------------------------------------------------------------------
1 | 0:00.01 | 5:31.30 | 1 | 24855
2 | 5:31.31 | 5:53.26 | 24856 | 51356
3 | 11:24.57 | 5:11.25 | 51357 | 74706
4 | 16:36.07 | 4:54.38 | 74707 | 96794
5 | 21:30.45 | 6:18.57 | 96795 | 125201
6 | 27:49.27 | 6:07.22 | 125202 | 152748
7 | 33:56.49 | 5:39.22 | 152749 | 178195
8 | 39:35.71 | 6:10.49 | 178196 | 205994
9 | 45:46.45 | 7:53.14 | 205995 | 241483
10 | 53:39.59 | 6:46.13 | 241484 | 271946


Характеристики диапазона извлечения и сообщения об ошибках

Выбранный диапазон

Имя файла D:\MusicAudio\Finished\Nowhere to Hide - Praying Mantis.ape

Пиковый уровень 100.0 %
Качество диапазона 100.0 %
CRC копии B0FA289B
Копирование... OK

Ошибок не произошло

Конец отчёта


cue
REM DATE 2000
REM DISCID 930E290A
REM COMMENT "ExactAudioCopy v0.99pb3"
PERFORMER "Praying Mantis"
TITLE "Nowhere to Hide"
FILE "Nowhere to Hide - Praying Mantis.ape" WAVE
TRACK 01 AUDIO
TITLE "Nowhere To Hide"
PERFORMER "Praying Mantis"
FLAGS DCP
INDEX 00 00:00:00
INDEX 01 00:00:01
TRACK 02 AUDIO
TITLE "Cruel Winter"
PERFORMER "Praying Mantis"
FLAGS DCP
INDEX 00 05:31:30
INDEX 01 05:31:31
TRACK 03 AUDIO
TITLE "The Clocktower"
PERFORMER "Praying Mantis"
FLAGS DCP
INDEX 01 11:24:57
TRACK 04 AUDIO
TITLE "Can't Stop The Fire"
PERFORMER "Praying Mantis"
FLAGS DCP
INDEX 01 16:36:07
TRACK 05 AUDIO
TITLE "Future Of The World"
PERFORMER "Praying Mantis"
FLAGS DCP
INDEX 00 21:30:44
INDEX 01 21:30:45
TRACK 06 AUDIO
TITLE "Whenever I'm Lost"
PERFORMER "Praying Mantis"
FLAGS DCP
INDEX 00 27:49:26
INDEX 01 27:49:27
TRACK 07 AUDIO
TITLE "You'll Never Know"
PERFORMER "Praying Mantis"
FLAGS DCP
INDEX 00 33:56:48
INDEX 01 33:56:49
TRACK 08 AUDIO
TITLE "River Of Hope"
PERFORMER "Praying Mantis"
FLAGS DCP
INDEX 00 39:35:70
INDEX 01 39:35:71
TRACK 09 AUDIO
TITLE "Naked"
PERFORMER "Praying Mantis"
FLAGS DCP
INDEX 00 45:46:44
INDEX 01 45:46:45
TRACK 10 AUDIO
TITLE "S.O.S."
PERFORMER "Praying Mantis"
FLAGS DCP
INDEX 01 53:39:59

_________________


Top
 Profile E-mail  
 
 
PostPosted: 19 Jul 2011 
ТрэшЭрос
User avatar
Joined: 18 Jul 2011
Posts: 2307
Lоcаtion: Гулькевичи
Age: 45
Name: Александр
Scatterbrain, спасибо, брат! :thanx: Но мы с компом уже 4 из 5 скачали части... Надежда есть на зомби №3? :umnik: А то сызнова качать всё как-то несподручно... :oops:

_________________
Thrash no trash!!!


Top
 Profile E-mail  
 
 
PostPosted: 19 Jul 2011 
Хиппей (support team)
User avatar
Joined: 30 Jul 2007
Posts: 119421
Lоcаtion: Киев (Kyiv, UA)
Age: 47
Name: Andrey
MetallicAS wrote:
Надежда есть на зомби №3?

Конечно есть :dance: Но может пройти времени больше, чем скачать заново всё с Мультика или Народа :pardon:
Не думаю, что на Кубани тырнет нонче дорогой и медленный. Даже в офисах :oops:

_________________


Top
 Profile E-mail  
 
 
PostPosted: 19 Jul 2011 
ТрэшЭрос
User avatar
Joined: 18 Jul 2011
Posts: 2307
Lоcаtion: Гулькевичи
Age: 45
Name: Александр
Знову Киiв краше всiх! ;)

Монопольный тырнет ЮТК на Кубани недёшев: у меня скорость 256, стОит 390 рэ/ме :oops: . Отсюдова следует, шо ежели сызнова скачать для прослушивания вышезаявленный албумчег, то времени на сие треба 4,5-5 часов, и ни хвилиной меньше :shok:
Так шо лучше обождать, мож Фолдырь сойдёт на милость?

_________________
Thrash no trash!!!


Top
 Profile E-mail  
 
 
PostPosted: 19 Jul 2011 
Хиппей (support team)
User avatar
Joined: 30 Jul 2007
Posts: 119421
Lоcаtion: Киев (Kyiv, UA)
Age: 47
Name: Andrey
MetallicAS wrote:
то времени на сие треба 4,5-5 часов, и ни хвилиной меньше

Ну и норм. А куда спешить? :vic:

Вчера в час ночи отправил на Фолдырь просьбу восстановить 3-й архив. Пока молчат :fingal:

_________________


Top
 Profile E-mail  
 
 
PostPosted: 19 Jul 2011 
ТрэшЭрос
User avatar
Joined: 18 Jul 2011
Posts: 2307
Lоcаtion: Гулькевичи
Age: 45
Name: Александр
Scatterbrain, йес!!! :crazy:
Получилось! Часть №3 доступна для скачивания. Тяжёлое металлическое спасибо!!! :thanx:

_________________
Thrash no trash!!!


Top
 Profile E-mail  
 
 
PostPosted: 19 Jul 2011 
Хиппей (support team)
User avatar
Joined: 30 Jul 2007
Posts: 119421
Lоcаtion: Киев (Kyiv, UA)
Age: 47
Name: Andrey
| +
Quote:
От кого Admin <admin@ifolder.ru> добавить
Кому ***@ya.ru
Копия admin@ifolder.ru
Отправлено
А←А
19 июля 2011 в 13:52
Здравствуйте

Исправлено, файл доступен для скачивания.

--
С уважением, Ольга Пичужкина
http://www.ifolder.ru


:dance:

_________________


Top
 Profile E-mail  
 
 
PostPosted: 25 Aug 2011 
Пионэръ
Joined: 25 Aug 2011
Posts: 48
Lоcаtion: Worl
Name: Zoltan Tivesko
Can anyone upload PRAYING MANTIS - "A Cry For The New World" in lossless?


Top
 Profile E-mail  
 
 
PostPosted: 27 Aug 2011 
Хиппей (support team)
User avatar
Joined: 30 Jul 2007
Posts: 119421
Lоcаtion: Киев (Kyiv, UA)
Age: 47
Name: Andrey
zoti

:arrow: http://rutracker.org/forum/viewtopic.php?t=3091880 :dance:

_________________


Top
 Profile E-mail  
 
 
PostPosted: 27 Aug 2011 
Хиппей (support team)
User avatar
Joined: 30 Jul 2007
Posts: 119421
Lоcаtion: Киев (Kyiv, UA)
Age: 47
Name: Andrey
or... http://nnm.ru/blogs/indigopapa/praying_ ... new_world_ :thanx:

http://www.megaupload.com/?d=KG7Y8TAF

pass - indigopapa

_________________


Top
 Profile E-mail  
 
 
PostPosted: 27 Aug 2011 
Хиппей (support team)
User avatar
Joined: 30 Jul 2007
Posts: 119421
Lоcаtion: Киев (Kyiv, UA)
Age: 47
Name: Andrey
zoti wrote:
PRAYING MANTIS - "A Cry For The New World"

mirror: MultiUp l Narod

_________________


Top
 Profile E-mail  
 
 
PostPosted: 27 Aug 2011 
Пионэръ
Joined: 25 Aug 2011
Posts: 48
Lоcаtion: Worl
Name: Zoltan Tivesko
:gra:


Top
 Profile E-mail  
 
 
PostPosted: 23 May 2012 
Прокъмитолист
User avatar
Joined: 12 Aug 2007
Posts: 6776
Lоcаtion: Санктъ-Петербуркъ
Age: 53
Name: Олекъ
сграбил несколько японских Мэнтисов по просьбе с рутрекера. сканов не делал, т.к. со сканированием для собственных релизов на ММТ никак не разгрестись, очередь на месяцы вперед (несколько имевшихся в закромах картинок все же приложил). но может кому-то и так сойдет (а основные сканы можно и в сети нарыть).

Image

Praying Mantis [1990] Live At Last [PCCY-00116]

Tracklist & Lineup
01. Panic In The Streets
02. Dangerous Game
03. Children Of The Earth
04. Lovers To The Grave
05. Flirting With Suicide
06. Hot Tonight
07. Running For Tomorrow
08. Wrathchild
09. Murders In The Rue Morgue
10. Remember Tomorrow
11. Phantom Of The Opera
12. Iron Maiden
13. Cheated
14. Running Free

Tino Troy - lead vocals on 1,4 & 5, guitars
Dennis Stratton - lead vocals on 2, guitars
Chris Troy - lead vocals on 3, bass
Paul Di'Anno - lead vocals on 6-14
Bruce Bisland - drums

EAC log
Code:
Exact Audio Copy V1.0 beta 1 from 15. November 2010

EAC extraction logfile from 22. May 2012, 15:22

Praying Mantis / Live At Last (Japan)

Used drive  : Optiarc DVD RW AD-7240S   Adapter: 2  ID: 0

Read mode               : Secure
Utilize accurate stream : Yes
Defeat audio cache      : Yes
Make use of C2 pointers : No

Read offset correction                      : 48
Overread into Lead-In and Lead-Out          : No
Fill up missing offset samples with silence : Yes
Delete leading and trailing silent blocks   : No
Null samples used in CRC calculations       : Yes
Used interface                              : Native Win32 interface for Win NT & 2000

Used output format : Internal WAV Routines
Sample format      : 44.100 Hz; 16 Bit; Stereo


TOC of the extracted CD

     Track |   Start  |  Length  | Start sector | End sector
    ---------------------------------------------------------
        1  |  0:00.00 |  5:10.62 |         0    |    23311   
        2  |  5:10.62 |  4:02.25 |     23312    |    41486   
        3  |  9:13.12 |  6:23.03 |     41487    |    70214   
        4  | 15:36.15 |  4:58.57 |     70215    |    92621   
        5  | 20:34.72 |  6:11.58 |     92622    |   120504   
        6  | 26:46.55 |  3:48.20 |    120505    |   137624   
        7  | 30:35.00 |  3:50.52 |    137625    |   154926   
        8  | 34:25.52 |  3:06.03 |    154927    |   168879   
        9  | 37:31.55 |  4:44.15 |    168880    |   190194   
       10  | 42:15.70 |  6:05.35 |    190195    |   217604   
       11  | 48:21.30 |  7:05.67 |    217605    |   249546   
       12  | 55:27.22 |  5:19.13 |    249547    |   273484   
       13  | 60:46.35 |  3:53.47 |    273485    |   291006   
       14  | 64:40.07 |  5:17.30 |    291007    |   314811   


Range status and errors

Selected range

     Filename D:\spiralarch\Praying Mantis - Live At Last (Japan).wav

     Peak level 94.4 %
     Extraction speed 0.3 X
     Range quality 100.0 %
     Test CRC F222937A
     Copy CRC F222937A
     Copy OK

No errors occurred


AccurateRip summary

Track  1  not present in database
Track  2  not present in database
Track  3  not present in database
Track  4  not present in database
Track  5  not present in database
Track  6  not present in database
Track  7  not present in database
Track  8  not present in database
Track  9  not present in database
Track 10  not present in database
Track 11  not present in database
Track 12  not present in database
Track 13  not present in database
Track 14  not present in database

None of the tracks are present in the AccurateRip database

End of status report

==== Log checksum 43E78BC87868CCA4130306DB5DFC2707138C28934559A831908359F8078ECBE6 ====


Image

Praying Mantis [1991] Predator In Disguise [PCCY-00207]

Tracklist & Lineup
01. Can't See The Angels
02. She's Hot
03. Can't Wait Forever
04. This Time Girl
05. Time Slipping Away
06. Listen What Your Heart Says
07. Still Want You
08. The Horn
09. Battle Royal
10. Only You
11. Borderline

Chris Troy - lead vocals on 1,3,5,9 & 11, bass
Dennis Stratton - lead vocals on 2,4,6,7 & 10, guitars
Tino Troy - guitars and vocals
Bruce Bisland - drums

EAC log
Code:
Exact Audio Copy V1.0 beta 1 from 15. November 2010

EAC extraction logfile from 21. May 2012, 19:26

Praying Mantis / Predator In Disguise (Japan)

Used drive  : Optiarc DVD RW AD-7240S   Adapter: 2  ID: 0

Read mode               : Secure
Utilize accurate stream : Yes
Defeat audio cache      : Yes
Make use of C2 pointers : No

Read offset correction                      : 48
Overread into Lead-In and Lead-Out          : No
Fill up missing offset samples with silence : Yes
Delete leading and trailing silent blocks   : No
Null samples used in CRC calculations       : Yes
Used interface                              : Native Win32 interface for Win NT & 2000

Used output format : Internal WAV Routines
Sample format      : 44.100 Hz; 16 Bit; Stereo


TOC of the extracted CD

     Track |   Start  |  Length  | Start sector | End sector
    ---------------------------------------------------------
        1  |  0:00.00 |  5:18.62 |         0    |    23911   
        2  |  5:18.62 |  4:10.25 |     23912    |    42686   
        3  |  9:29.12 |  5:47.58 |     42687    |    68769   
        4  | 15:16.70 |  4:16.42 |     68770    |    88011   
        5  | 19:33.37 |  4:43.03 |     88012    |   109239   
        6  | 24:16.40 |  4:29.57 |    109240    |   129471   
        7  | 28:46.22 |  4:32.48 |    129472    |   149919   
        8  | 33:18.70 |  2:56.57 |    149920    |   163176   
        9  | 36:15.52 |  3:47.38 |    163177    |   180239   
       10  | 40:03.15 |  5:03.17 |    180240    |   202981   
       11  | 45:06.32 |  4:58.65 |    202982    |   225396   


Range status and errors

Selected range

     Filename D:\spiralarch\Praying Mantis - Predator In Disguise (Japan).wav

     Peak level 80.2 %
     Extraction speed 0.3 X
     Range quality 100.0 %
     Copy CRC E74ADA97
     Copy OK

No errors occurred


AccurateRip summary

Track  1  not present in database
Track  2  not present in database
Track  3  not present in database
Track  4  not present in database
Track  5  not present in database
Track  6  not present in database
Track  7  not present in database
Track  8  not present in database
Track  9  not present in database
Track 10  not present in database
Track 11  not present in database

None of the tracks are present in the AccurateRip database

End of status report

==== Log checksum 257896E40DDCBEBACC8A1B385F9ACA643714AA505A8D47806979228BCD1D2B36 ====


Image

Praying Mantis [1996] Captured Alive In Tokyo City [PCCY-00902]

Tracklist & Lineup
01. Victory
02. A Cry For The New World
03. Can't See The Angels
04. Bring On The Night
05. Only The Children Cry
06. To The Power Of Ten
07. The Horn
08. Dream On
09. Welcome To My Hollywood
10. Turn The Tables
11. Children Of The Earth

01. Angry Man
02. Don't Be Afraid Of The Dark
03. Cheated
04. Letting Go
05. Lovers To The Grave
06. Flirting With Suicide
07. Rise Up Again
08. Armed And Ready
09. Captured City

Gary Barden - lead vocals
Tino Troy - guitars and vocals
Dennis Stratton - guitars and vocals
Chris Troy - bass and vocals
Clive Burr - drums

EAC logs
Code:
Exact Audio Copy V1.0 beta 1 from 15. November 2010

EAC extraction logfile from 22. May 2012, 16:26

Praying Mantis / Captured Alive In Tokyo City CD1

Used drive  : Optiarc DVD RW AD-7240S   Adapter: 2  ID: 0

Read mode               : Secure
Utilize accurate stream : Yes
Defeat audio cache      : Yes
Make use of C2 pointers : No

Read offset correction                      : 48
Overread into Lead-In and Lead-Out          : No
Fill up missing offset samples with silence : Yes
Delete leading and trailing silent blocks   : No
Null samples used in CRC calculations       : Yes
Used interface                              : Native Win32 interface for Win NT & 2000

Used output format : Internal WAV Routines
Sample format      : 44.100 Hz; 16 Bit; Stereo


TOC of the extracted CD

     Track |   Start  |  Length  | Start sector | End sector
    ---------------------------------------------------------
        1  |  0:00.00 |  7:53.02 |         0    |    35476   
        2  |  7:53.02 |  7:00.50 |     35477    |    67026   
        3  | 14:53.52 |  5:43.30 |     67027    |    92781   
        4  | 20:37.07 |  4:54.73 |     92782    |   114904   
        5  | 25:32.05 |  5:24.62 |    114905    |   139266   
        6  | 30:56.67 |  3:56.65 |    139267    |   157031   
        7  | 34:53.57 |  2:59.00 |    157032    |   170456   
        8  | 37:52.57 |  6:10.65 |    170457    |   198271   
        9  | 44:03.47 |  6:38.58 |    198272    |   228179   
       10  | 50:42.30 |  5:17.57 |    228180    |   252011   
       11  | 56:00.12 |  6:05.00 |    252012    |   279386   


Range status and errors

Selected range

     Filename D:\spiralarch\Praying Mantis - Captured Alive In Tokyo City CD1.wav

     Peak level 97.2 %
     Extraction speed 0.4 X
     Range quality 100.0 %
     Test CRC 8237049E
     Copy CRC 8237049E
     Copy OK

No errors occurred


AccurateRip summary

Track  1  not present in database
Track  2  not present in database
Track  3  not present in database
Track  4  not present in database
Track  5  not present in database
Track  6  not present in database
Track  7  not present in database
Track  8  not present in database
Track  9  not present in database
Track 10  not present in database
Track 11  not present in database

None of the tracks are present in the AccurateRip database

End of status report

==== Log checksum 2C9C6B6A2D2CF83C043F4E2902FCBB4440E4F09EBE46BBC2CFA06377BD8A9AD3 ====
Code:
Exact Audio Copy V1.0 beta 1 from 15. November 2010

EAC extraction logfile from 22. May 2012, 16:59

Praying Mantis / Captured Alive In Tokyo City CD2

Used drive  : Optiarc DVD RW AD-7240S   Adapter: 2  ID: 0

Read mode               : Secure
Utilize accurate stream : Yes
Defeat audio cache      : Yes
Make use of C2 pointers : No

Read offset correction                      : 48
Overread into Lead-In and Lead-Out          : No
Fill up missing offset samples with silence : Yes
Delete leading and trailing silent blocks   : No
Null samples used in CRC calculations       : Yes
Used interface                              : Native Win32 interface for Win NT & 2000

Used output format : Internal WAV Routines
Sample format      : 44.100 Hz; 16 Bit; Stereo


TOC of the extracted CD

     Track |   Start  |  Length  | Start sector | End sector
    ---------------------------------------------------------
        1  |  0:00.00 |  4:02.50 |         0    |    18199   
        2  |  4:02.50 |  6:21.22 |     18200    |    46796   
        3  | 10:23.72 |  3:45.68 |     46797    |    63739   
        4  | 14:09.65 |  8:17.02 |     63740    |   101016   
        5  | 22:26.67 |  5:55.53 |    101017    |   127694   
        6  | 28:22.45 |  6:23.10 |    127695    |   156429   
        7  | 34:45.55 |  5:29.27 |    156430    |   181131   
        8  | 40:15.07 |  6:12.10 |    181132    |   209041   
        9  | 46:27.17 |  6:31.20 |    209042    |   238386   


Range status and errors

Selected range

     Filename D:\spiralarch\Praying Mantis - Captured Alive In Tokyo City CD2.wav

     Peak level 97.2 %
     Extraction speed 0.4 X
     Range quality 100.0 %
     Test CRC E375A307
     Copy CRC E375A307
     Copy OK

No errors occurred


AccurateRip summary

Track  1  not present in database
Track  2  not present in database
Track  3  not present in database
Track  4  not present in database
Track  5  not present in database
Track  6  not present in database
Track  7  not present in database
Track  8  not present in database
Track  9  not present in database

None of the tracks are present in the AccurateRip database

End of status report

==== Log checksum F311B6186442D22A1915424A53901EC3813F4099BD12B09BA71B45E497C8FC28 ====


Image

Praying Mantis [1999] Demorabilia [PCCY-01342]

Tracklist & Lineup
01. One Of These Days (Escape Nov 83)
02. Wasted Love (Escape Nov 83)
03. Fantasy (Escape Nov 83)
04. Woman Of The Night (Escape Nov 83)
05. I Don't Take Prisoners (Escape Nov 83)
06. Born Evil (Escape Nov 83)
07. The Horn (Escape Nov 83)
08. Top Of The Mountain (Escape Nov 83)
09. All Over Again (Praying Mantis Late 83)
10. Romancer (Praying Mantis late 83)
11. Your Number (Praying Mantis late 83)
12. Give Me A Reason (Praying Mantis June 83)
13. Heartache (Praying Mantis Winter 81 - Tom Jackson on vocals)

01. A Question Of Time (Praying Mantis Aug 81)
02. I Need Your Loving (Praying Mantis Aug 81)
03. Battle Royal (Praying Mantis Aug 81)
04. Time Slipping Away (Praying Mantis Aug 81)
05. Got To Get It (Praying Mantis Jan 83)
06. Over And Over (Praying Mantis Jan 83)
07. Never Say No (Praying Mantis Jan 83)
08. Heat Of The Moment (Escape late 83)
09. Whose Life Is It Anyway? (Escape late 83)
10. Enough Is Enough (Praying Mantis May 83)
11. Raining In Kensington (Praying Mantis May 83)
12. Nightmares (Praying Mantis May 83)
13. Give Me A Reason (Praying Mantis Aug 81 - Chris on vocals)
14. The Story (Praying Mantis Aug 81 - Chris then Steve on vocals)

Bernie Shaw - lead vocals on most tracks
Tom Jackson - lead vocals (Winter 81)
Tino Troy - guitars, backing vocals and keyboards
Steve Carroll - guitars, backing vocals, lead vocals on 81 tracks
Chris Troy - bass, backing and lead vocals
Don Garbett - keyboards on Nov 83 tracks
Jon Bavin - keyboards on May and June 83 tracks
Clive Burr - drums on most Escape tracks
Dave Potts - drums on most Praying Mantis tracks

EAC logs
Code:
Exact Audio Copy V1.0 beta 1 from 15. November 2010

EAC extraction logfile from 22. May 2012, 18:06

Praying Mantis / Demorabilia CD1

Used drive  : Optiarc DVD RW AD-7240S   Adapter: 2  ID: 0

Read mode               : Secure
Utilize accurate stream : Yes
Defeat audio cache      : Yes
Make use of C2 pointers : No

Read offset correction                      : 48
Overread into Lead-In and Lead-Out          : No
Fill up missing offset samples with silence : Yes
Delete leading and trailing silent blocks   : No
Null samples used in CRC calculations       : Yes
Used interface                              : Native Win32 interface for Win NT & 2000

Used output format : Internal WAV Routines
Sample format      : 44.100 Hz; 16 Bit; Stereo


TOC of the extracted CD

     Track |   Start  |  Length  | Start sector | End sector
    ---------------------------------------------------------
        1  |  0:00.00 |  3:08.50 |         0    |    14149   
        2  |  3:08.50 |  3:40.20 |     14150    |    30669   
        3  |  6:48.70 |  3:48.07 |     30670    |    47776   
        4  | 10:37.02 |  3:26.15 |     47777    |    63241   
        5  | 14:03.17 |  3:47.55 |     63242    |    80321   
        6  | 17:50.72 |  3:32.60 |     80322    |    96281   
        7  | 21:23.57 |  3:07.68 |     96282    |   110374   
        8  | 24:31.50 |  4:06.30 |    110375    |   128854   
        9  | 28:38.05 |  3:44.60 |    128855    |   145714   
       10  | 32:22.65 |  3:37.10 |    145715    |   161999   
       11  | 36:00.00 |  3:51.47 |    162000    |   179371   
       12  | 39:51.47 |  3:29.18 |    179372    |   195064   
       13  | 43:20.65 |  2:26.27 |    195065    |   206041   


Range status and errors

Selected range

     Filename D:\spiralarch\Praying Mantis - Demorabilia CD1.wav

     Peak level 100.0 %
     Extraction speed 0.2 X
     Range quality 100.0 %
     Test CRC F2AC67F0
     Copy CRC F2AC67F0
     Copy OK

No errors occurred


AccurateRip summary

Track  1  accurately ripped (confidence 1)  [192018E1]
Track  2  accurately ripped (confidence 1)  [22852C32]
Track  3  accurately ripped (confidence 1)  [222EE260]
Track  4  accurately ripped (confidence 1)  [38D2E24E]
Track  5  accurately ripped (confidence 1)  [4E1E6FE2]
Track  6  accurately ripped (confidence 1)  [740810CC]
Track  7  accurately ripped (confidence 1)  [072E0161]
Track  8  accurately ripped (confidence 1)  [7ED16A86]
Track  9  accurately ripped (confidence 1)  [9D0727E7]
Track 10  accurately ripped (confidence 1)  [D921DED5]
Track 11  accurately ripped (confidence 1)  [A158EC00]
Track 12  accurately ripped (confidence 1)  [698E3C56]
Track 13  accurately ripped (confidence 1)  [31A50C7D]

All tracks accurately ripped

End of status report

==== Log checksum 2B9CD26E84CCE2D4479F4E79114EDDF00FC8BE3ACC02E1289A65928A710E9594 ====
Code:
Exact Audio Copy V1.0 beta 1 from 15. November 2010

EAC extraction logfile from 22. May 2012, 18:43

Praying Mantis / Demorabilia CD2

Used drive  : Optiarc DVD RW AD-7240S   Adapter: 2  ID: 0

Read mode               : Secure
Utilize accurate stream : Yes
Defeat audio cache      : Yes
Make use of C2 pointers : No

Read offset correction                      : 48
Overread into Lead-In and Lead-Out          : No
Fill up missing offset samples with silence : Yes
Delete leading and trailing silent blocks   : No
Null samples used in CRC calculations       : Yes
Used interface                              : Native Win32 interface for Win NT & 2000

Used output format : Internal WAV Routines
Sample format      : 44.100 Hz; 16 Bit; Stereo


TOC of the extracted CD

     Track |   Start  |  Length  | Start sector | End sector
    ---------------------------------------------------------
        1  |  0:00.00 |  4:13.27 |         0    |    19001   
        2  |  4:13.27 |  2:56.18 |     19002    |    32219   
        3  |  7:09.45 |  3:34.12 |     32220    |    48281   
        4  | 10:43.57 |  4:37.70 |     48282    |    69126   
        5  | 15:21.52 |  3:30.60 |     69127    |    84936   
        6  | 18:52.37 |  3:21.13 |     84937    |   100024   
        7  | 22:13.50 |  3:30.45 |    100025    |   115819   
        8  | 25:44.20 |  3:36.37 |    115820    |   132056   
        9  | 29:20.57 |  3:50.13 |    132057    |   149319   
       10  | 33:10.70 |  3:38.30 |    149320    |   165699   
       11  | 36:49.25 |  4:13.25 |    165700    |   184699   
       12  | 41:02.50 |  3:08.57 |    184700    |   198856   
       13  | 44:11.32 |  4:30.43 |    198857    |   219149   
       14  | 48:42.00 |  6:35.60 |    219150    |   248834   


Range status and errors

Selected range

     Filename D:\spiralarch\Praying Mantis - Demorabilia CD2.wav

     Peak level 100.0 %
     Extraction speed 0.4 X
     Range quality 100.0 %
     Test CRC 5F48DEE9
     Copy CRC 5F48DEE9
     Copy OK

No errors occurred


AccurateRip summary

Track  1  accurately ripped (confidence 1)  [188E14E5]
Track  2  accurately ripped (confidence 1)  [A249CB89]
Track  3  accurately ripped (confidence 1)  [B106429A]
Track  4  accurately ripped (confidence 1)  [1B551A90]
Track  5  accurately ripped (confidence 1)  [89E15B9C]
Track  6  accurately ripped (confidence 1)  [4286100F]
Track  7  accurately ripped (confidence 1)  [351F2C91]
Track  8  accurately ripped (confidence 1)  [4F3441F6]
Track  9  accurately ripped (confidence 1)  [23969543]
Track 10  accurately ripped (confidence 1)  [3BADC15A]
Track 11  accurately ripped (confidence 1)  [12F845AD]
Track 12  accurately ripped (confidence 1)  [F69C5889]
Track 13  accurately ripped (confidence 1)  [F0D98476]
Track 14  accurately ripped (confidence 1)  [2C2A1603]

All tracks accurately ripped

End of status report

==== Log checksum AA0F19D9A67941927BE0A3AB5081A63D2B413CD4D52769FE6AE4BBE4C2DBCCDB ====


з.ы. ну и название темки надо бы в очередной раз поменять :umnik:

_________________
прокъметол - это музыко, от которово есть прок (ы)


Top
 Profile  
 
Display posts from previous:  Sort by  
Post new topic Reply to topic  [ 34 posts ]  Go to page 1, 2  Next

All times are UTC + 3 hours


Who is online

Users browsing this forum: No registered users and 1 guest


You cannot post new topics in this forum
You cannot reply to topics in this forum
You cannot edit your posts in this forum
You cannot delete your posts in this forum
You cannot post attachments in this forum

Search for:
Яндекс.Метрика
Powered by phpBB © 2000, 2002, 2005, 2007 phpBB Group